The Rolling Stones – Love You Live (Japanese Edition)




No Cover available


Artist: The Rolling Stones
Year: 1977/1986
Genre: Rock
Notes: Discogs
Add. Notes: Japanese Edition
Watch Songs on: YouTube
Cover incl.: Yes
Encoder: FLAC
Bitrate: ~900 kBit/s (44.1 kHz/16 Bit/s)
Log & Cue incl.: Yes/Yes
Size: 622,4 MB
Password: “slam” (without ” “)


All Downloads/Hosters are compatible

Download 1
KatFile.com
Turbobit.net
Rapidgator.net
FileFactory.com
Download 2
KatFile.com
Turbobit.net
Rapidgator.net
FileFactory.com

Tracklist:

1-1 Intro: Excerpt From "Fanfare For The Common Man" 
1:24
1-2 Honky Tonk Women 3:21
1-3 If You Can't Rock Me / Get Off Of My Cloud 5:00
1-4 Happy 2:55
1-5 Hot Stuff 4:37
1-6 Star Star 4:09
1-7 Tumbling Dice 4:01
1-8 Fingerprint File 5:17
1-9 You Gotta Move 4:19
1-10 You Can't Always Get What You Want 7:44

2-1 Mannish Boy 5:56
2-2 Crackin' Up 3:59
2-3 Little Red Rooster 4:03
2-4 Around And Around 4:02
2-5 It's Only Rock 'N Roll 4:26
2-6 Brown Sugar 3:12
2-7 Jumping Jack Flash 3:29
2-8 Sympathy For The Devil 7:57

EAC-Log, CUE-Sheed & NFO:

Click to open spoiler
Exact Audio Copy V1.0 beta 4 from 7. December 2014

EAC extraction logfile from 19. February 2015, 20:32

The Rolling Stones / Love You Live CD1 (1986, 50DP 606-7)

Used drive : ATAPI iHAS124 B Adapter: 1 ID: 0

Read mode : Secure
Utilize accurate stream : Yes
Defeat audio cache : Yes
Make use of C2 pointers : No

Read offset correction : 6
Overread into Lead-In and Lead-Out : No
Fill up missing offset samples with silence : Yes
Delete leading and trailing silent blocks : No
Null samples used in CRC calculations : Yes
Used interface : Installed external ASPI interface

Used output format : User Defined Encoder
Selected bitrate : 128 kBit/s
Quality : High
Add ID3 tag : Yes
Command line compressor : C:\Program Files (x86)\Exact Audio Copy\Flac\flac.exe
Additional command line options : -V -8 -T “Date=%year%” -T “Genre=%genre%” %source%

TOC of the extracted CD

Track | Start | Length | Start sector | End sector
———————————————————
1 | 0:00.00 | 1:23.50 | 0 | 6274
2 | 1:23.50 | 3:21.10 | 6275 | 21359
3 | 4:44.60 | 5:00.17 | 21360 | 43876
4 | 9:45.02 | 2:54.73 | 43877 | 56999
5 | 12:40.00 | 4:36.60 | 57000 | 77759
6 | 17:16.60 | 4:08.65 | 77760 | 96424
7 | 21:25.50 | 4:01.32 | 96425 | 114531
8 | 25:27.07 | 5:17.08 | 114532 | 138314
9 | 30:44.15 | 4:19.45 | 138315 | 157784
10 | 35:03.60 | 7:43.67 | 157785 | 192576

Range status and errors

Selected range

Filename G:\CD\The Rolling Stones – Love You Live CD1.wav

Peak level 100.0 %
Extraction speed 5.2 X
Range quality 99.9 %
Test CRC BB9277B9
Copy CRC BB9277B9
Copy OK

No errors occurred

AccurateRip summary

Track 1 accurately ripped (confidence 11) [0FFD4F79] (AR v2)
Track 2 accurately ripped (confidence 11) [E5A6ADC0] (AR v2)
Track 3 accurately ripped (confidence 11) [D0D5CFD5] (AR v2)
Track 4 accurately ripped (confidence 11) [72B3EB20] (AR v2)
Track 5 accurately ripped (confidence 11) [C8C78C02] (AR v2)
Track 6 accurately ripped (confidence 11) [F52C741A] (AR v2)
Track 7 accurately ripped (confidence 11) [0C1F2E62] (AR v2)
Track 8 accurately ripped (confidence 11) [B9465904] (AR v2)
Track 9 accurately ripped (confidence 11) [75B02A38] (AR v2)
Track 10 accurately ripped (confidence 11) [F24C573D] (AR v2)

All tracks accurately ripped

End of status report

—- CUETools DB Plugin V2.1.4

[CTDB TOCID: LT5htO6n0K4WAoZdE1I9pW.iK2E-] found
Submit result: already submitted
Track | CTDB Status
1 | (14/14) Accurately ripped
2 | (14/14) Accurately ripped
3 | (14/14) Accurately ripped
4 | (14/14) Accurately ripped
5 | (14/14) Accurately ripped
6 | (14/14) Accurately ripped
7 | (14/14) Accurately ripped
8 | (14/14) Accurately ripped
9 | (14/14) Accurately ripped
10 | (13/14) Accurately ripped

==== Log checksum 4487991B644409EA3A5BC0DD46FD175598A04B7B9894347D0A9217661005EFAB ====

Exact Audio Copy V1.0 beta 4 from 7. December 2014

EAC extraction logfile from 19. February 2015, 20:16

The Rolling Stones / Love You Live CD2 (1986, 50DP 606-7)

Used drive : ATAPI iHAS124 B Adapter: 1 ID: 0

Read mode : Secure
Utilize accurate stream : Yes
Defeat audio cache : Yes
Make use of C2 pointers : No

Read offset correction : 6
Overread into Lead-In and Lead-Out : No
Fill up missing offset samples with silence : Yes
Delete leading and trailing silent blocks : No
Null samples used in CRC calculations : Yes
Used interface : Installed external ASPI interface

Used output format : User Defined Encoder
Selected bitrate : 128 kBit/s
Quality : High
Add ID3 tag : Yes
Command line compressor : C:\Program Files (x86)\Exact Audio Copy\Flac\flac.exe
Additional command line options : -V -8 -T “Date=%year%” -T “Genre=%genre%” %source%

TOC of the extracted CD

Track | Start | Length | Start sector | End sector
———————————————————
1 | 0:00.00 | 6:28.57 | 0 | 29156
2 | 6:28.57 | 5:41.48 | 29157 | 54779
3 | 12:10.30 | 4:39.00 | 54780 | 75704
4 | 16:49.30 | 4:07.15 | 75705 | 94244
5 | 20:56.45 | 4:26.32 | 94245 | 114226
6 | 25:23.02 | 3:12.13 | 114227 | 128639
7 | 28:35.15 | 3:58.15 | 128640 | 146504
8 | 32:33.30 | 7:57.00 | 146505 | 182279

Range status and errors

Selected range

Filename G:\CD\The Rolling Stones – Love You Live CD2.wav

Peak level 100.0 %
Extraction speed 5.2 X
Range quality 100.0 %
Test CRC BD24C1F1
Copy CRC BD24C1F1
Copy OK

No errors occurred

AccurateRip summary

Track 1 accurately ripped (confidence 10) [11070117] (AR v2)
Track 2 accurately ripped (confidence 10) [37063FD5] (AR v2)
Track 3 accurately ripped (confidence 10) [2DCA4CA6] (AR v2)
Track 4 accurately ripped (confidence 10) [CEC1DFA2] (AR v2)
Track 5 accurately ripped (confidence 10) [B25C4D5E] (AR v2)
Track 6 accurately ripped (confidence 10) [BC4C5E87] (AR v2)
Track 7 accurately ripped (confidence 10) [23A95F22] (AR v2)
Track 8 accurately ripped (confidence 10) [914F2E5E] (AR v2)

All tracks accurately ripped

End of status report

—- CUETools DB Plugin V2.1.4

[CTDB TOCID: jCl4lKxBhWlORoDVrspImzTy2uw-] found
Submit result: jCl4lKxBhWlORoDVrspImzTy2uw- has been confirmed
Track | CTDB Status
1 | (12/12) Accurately ripped
2 | (12/12) Accurately ripped
3 | (12/12) Accurately ripped
4 | (12/12) Accurately ripped
5 | (12/12) Accurately ripped
6 | (12/12) Accurately ripped
7 | (12/12) Accurately ripped
8 | (12/12) Accurately ripped

==== Log checksum 392E9C0EFB5315D97DF59B5A7BB8D66FFBA8615C3DDDD3E836C81E93BFD11802 ====

REM GENRE Rock
REM DATE 1977
REM DISCID 8C0A070A
REM COMMENT “ExactAudioCopy v1.0b4”
PERFORMER “The Rolling Stones”
TITLE “Love You Live CD1 (1986, 50DP 606-7)”
FILE “The Rolling Stones – Love You Live CD1.flac” WAVE
TRACK 01 AUDIO
TITLE “Intro – Excerpt From ‘Fanfare For The Common Man'”
PERFORMER “The Rolling Stones”
INDEX 01 00:00:00
TRACK 02 AUDIO
TITLE “Honky Tonk Women”
PERFORMER “The Rolling Stones”
INDEX 01 01:23:50
TRACK 03 AUDIO
TITLE “If You Can’t Rock Me; Get Off Of My Cloud”
PERFORMER “The Rolling Stones”
INDEX 01 04:44:60
TRACK 04 AUDIO
TITLE “Happy”
PERFORMER “The Rolling Stones”
INDEX 01 09:45:02
TRACK 05 AUDIO
TITLE “Hot Stuff”
PERFORMER “The Rolling Stones”
INDEX 01 12:40:00
TRACK 06 AUDIO
TITLE “Star Star”
PERFORMER “The Rolling Stones”
INDEX 01 17:16:60
TRACK 07 AUDIO
TITLE “Tumbling Dice”
PERFORMER “The Rolling Stones”
INDEX 01 21:25:50
TRACK 08 AUDIO
TITLE “Fingerprint File”
PERFORMER “The Rolling Stones”
INDEX 01 25:27:07
TRACK 09 AUDIO
TITLE “You Gotta Move”
PERFORMER “The Rolling Stones”
INDEX 01 30:44:15
TRACK 10 AUDIO
TITLE “You Can’t Always Get What You Want”
PERFORMER “The Rolling Stones”
INDEX 01 35:03:60

REM GENRE Rock
REM DATE 1977
REM DISCID 5E097E08
REM COMMENT “ExactAudioCopy v1.0b4”
PERFORMER “The Rolling Stones”
TITLE “Love You Live CD2 (1986, 50DP 606-7)”
FILE “The Rolling Stones – Love You Live CD2.flac” WAVE
TRACK 01 AUDIO
TITLE “Mannish Boy”
PERFORMER “The Rolling Stones”
INDEX 01 00:00:00
TRACK 02 AUDIO
TITLE “Cracking Up”
PERFORMER “The Rolling Stones”
INDEX 00 05:56:22
INDEX 01 06:28:57
TRACK 03 AUDIO
TITLE “Little Red Rooster”
PERFORMER “The Rolling Stones”
INDEX 00 10:27:32
INDEX 01 12:10:30
TRACK 04 AUDIO
TITLE “Around And Around”
PERFORMER “The Rolling Stones”
INDEX 00 16:14:00
INDEX 01 16:49:30
TRACK 05 AUDIO
TITLE “It’s Only Rock’n Roll”
PERFORMER “The Rolling Stones”
INDEX 00 20:51:70
INDEX 01 20:56:45
TRACK 06 AUDIO
TITLE “Brown Sugar”
PERFORMER “The Rolling Stones”
INDEX 01 25:23:02
TRACK 07 AUDIO
TITLE “Jumping Jack Flash”
PERFORMER “The Rolling Stones”
INDEX 01 28:35:15
TRACK 08 AUDIO
TITLE “Sympathy For The Devil”
PERFORMER “The Rolling Stones”
INDEX 00 32:04:20
INDEX 01 32:33:30


0

Publication author

offline 4 days

Chaos

3
Comments: 4Publics: 3565Registration: 02-02-2019
Spread the Download

Leave a Reply

Your email address will not be published. Required fields are marked *

Enter the text from the image below
 

This site uses Akismet to reduce spam. Learn how your comment data is processed.