The Rolling Stones – Live At The Tokyo Dome




Artist: The Rolling Stones
Year: 2015
Genre: Rock
Notes: Discogs
Add. Notes:
Cover incl.: Yes
Encoder: FLAC
Bitrate: ~900 kBit/s (44.1 kHz/16 Bit/s)
Log & Cue incl.: Yes
Size: 903 MB
Password: “slam” (without ” “)


All Downloads/Hosters are compatible

Download 1
KatFile.com
Turbobit.net
Rapidgator.net
Turbobit.net
Download 2
KatFile.com
Turbobit.net
Rapidgator.net
Turbobit.net

Tracklist:

CD1
1. Continental Drift
2. Start Me Up
3. Bitch
4. Sad Sad Sad
5. The Harlem Shuffle
6. Tumbling Dice
7. Miss You
8. Ruby Tuesday
9. Almost Hear You Sigh
10. Rock And A Hard Place
11. Mixed Emotions
12. Honky Tonk Women
13. Midnight Rambler
14. You Can't Always Get What You 
Want

CD2
1. Can't Be Seen
2. Happy
3. Paint It Black
4. 2000 Light Years From Home
5. Sympathy For The Devil
6. Gimme Shelter
7. It's Only Rock 'N Roll
8. Brown Sugar
9. (I Can't Get No) Satisfaction
10. Jumpin' Jack Flash

EAC-Log, CUE-Sheed & NFO:

Click to open spoiler
Exact Audio Copy V1.0 beta 3 from 29. August 2011

EAC extraction logfile from 25. November 2015, 16:31

The Rolling Stones / Live at the Tokyo Dome (CD1)

Used drive : HL-DT-STDVD+-RW GH50N Adapter: 0 ID: 0

Read mode : Secure
Utilize accurate stream : Yes
Defeat audio cache : Yes
Make use of C2 pointers : No

Read offset correction : 667
Overread into Lead-In and Lead-Out : No
Fill up missing offset samples with silence : Yes
Delete leading and trailing silent blocks : No
Null samples used in CRC calculations : Yes
Used interface : Native Win32 interface for Win NT & 2000

Used output format : User Defined Encoder
Selected bitrate : 768 kBit/s
Quality : High
Add ID3 tag : No
Command line compressor : C:\Program Files (x86)\Exact Audio Copy\FLAC\FLAC.EXE
Additional command line options : -V -8 -T “Date=%year%” -T “Genre=%genre%” %source%

TOC of the extracted CD

Track | Start | Length | Start sector | End sector
———————————————————
1 | 0:00.00 | 0:51.40 | 0 | 3864
2 | 0:51.40 | 4:02.17 | 3865 | 22031
3 | 4:53.57 | 3:42.16 | 22032 | 38697
4 | 8:35.73 | 4:24.53 | 38698 | 58550
5 | 13:00.51 | 4:23.39 | 58551 | 78314
6 | 17:24.15 | 4:26.69 | 78315 | 98333
7 | 21:51.09 | 6:29.33 | 98334 | 127541
8 | 28:20.42 | 3:50.46 | 127542 | 144837
9 | 32:11.13 | 5:17.20 | 144838 | 168632
10 | 37:28.33 | 5:31.31 | 168633 | 193488
11 | 42:59.64 | 5:30.64 | 193489 | 218302
12 | 48:30.53 | 5:00.48 | 218303 | 240850
13 | 53:31.26 | 10:55.54 | 240851 | 290029
14 | 64:27.05 | 7:31.50 | 290030 | 323904

Range status and errors

Selected range

Filename C:\222\Vault\2015 – The Rolling Stones – Tokyo 90\Audio\CD1\The Rolling Stones – Live at the Tokyo Dome (CD1).wav

Peak level 100.0 %
Extraction speed 3.3 X
Range quality 100.0 %
Test CRC 71D0168F
Copy CRC 71D0168F
Copy OK

No errors occurred

AccurateRip summary

Track 1 cannot be verified as accurate (confidence 1) [890C152E], AccurateRip returned [4E08A385] (AR v2)
Track 2 cannot be verified as accurate (confidence 1) [99AE9EF0], AccurateRip returned [C1A4702F] (AR v2)
Track 3 cannot be verified as accurate (confidence 1) [F9372445], AccurateRip returned [04D14FD8] (AR v2)
Track 4 cannot be verified as accurate (confidence 1) [247F366B], AccurateRip returned [2AB6E661] (AR v2)
Track 5 cannot be verified as accurate (confidence 1) [EFF8E6C1], AccurateRip returned [485E29D9] (AR v2)
Track 6 cannot be verified as accurate (confidence 1) [FB365148], AccurateRip returned [B686011E] (AR v2)
Track 7 cannot be verified as accurate (confidence 1) [0335FC2C], AccurateRip returned [55066949] (AR v2)
Track 8 cannot be verified as accurate (confidence 1) [9B2066A8], AccurateRip returned [9DF84143] (AR v2)
Track 9 cannot be verified as accurate (confidence 1) [550DD42A], AccurateRip returned [7EB7448E] (AR v2)
Track 10 cannot be verified as accurate (confidence 1) [6C1F804E], AccurateRip returned [F80FB897] (AR v2)
Track 11 cannot be verified as accurate (confidence 1) [6B2DC1F9], AccurateRip returned [DE97A9D1] (AR v2)
Track 12 cannot be verified as accurate (confidence 1) [F92A6028], AccurateRip returned [F3A68894] (AR v2)
Track 13 cannot be verified as accurate (confidence 1) [77FA964E], AccurateRip returned [AFE16BB4] (AR v2)
Track 14 cannot be verified as accurate (confidence 1) [9C1AE642], AccurateRip returned [6C4BF317] (AR v2)

No tracks could be verified as accurate
You may have a different pressing from the one(s) in the database

End of status report

==== Log checksum FE385A139931847AFC1C733DBD6FD389DCA55AFD04940E5C20DBE1FEFAA48048 ====

Exact Audio Copy V1.0 beta 3 from 29. August 2011

EAC extraction logfile from 25. November 2015, 17:14

The Rolling Stones / Live at the Tokyo Dome (CD2)

Used drive : HL-DT-STDVD+-RW GH50N Adapter: 0 ID: 0

Read mode : Secure
Utilize accurate stream : Yes
Defeat audio cache : Yes
Make use of C2 pointers : No

Read offset correction : 667
Overread into Lead-In and Lead-Out : No
Fill up missing offset samples with silence : Yes
Delete leading and trailing silent blocks : No
Null samples used in CRC calculations : Yes
Used interface : Native Win32 interface for Win NT & 2000

Used output format : User Defined Encoder
Selected bitrate : 768 kBit/s
Quality : High
Add ID3 tag : No
Command line compressor : C:\Program Files (x86)\Exact Audio Copy\FLAC\FLAC.EXE
Additional command line options : -V -8 -T “Date=%year%” -T “Genre=%genre%” %source%

TOC of the extracted CD

Track | Start | Length | Start sector | End sector
———————————————————
1 | 0:00.00 | 5:39.65 | 0 | 25489
2 | 5:39.65 | 4:27.71 | 25490 | 45585
3 | 10:07.61 | 4:06.38 | 45586 | 64073
4 | 14:14.24 | 7:08.45 | 64074 | 96218
5 | 21:22.69 | 7:44.00 | 96219 | 131018
6 | 29:06.69 | 8:08.00 | 131019 | 167618
7 | 37:14.69 | 4:27.06 | 167619 | 187649
8 | 41:42.00 | 4:34.20 | 187650 | 208219
9 | 46:16.20 | 9:29.10 | 208220 | 250904
10 | 55:45.30 | 8:37.20 | 250905 | 289699

Range status and errors

Selected range

Filename C:\222\Vault\2015 – The Rolling Stones – Tokyo 90\Audio\CD2\The Rolling Stones – Live at the Tokyo Dome (CD2).wav

Peak level 100.0 %
Extraction speed 3.4 X
Range quality 100.0 %
Test CRC 04CD711D
Copy CRC 04CD711D
Copy OK

No errors occurred

AccurateRip summary

Track 1 cannot be verified as accurate (confidence 1) [D247DA76], AccurateRip returned [84112EC0] (AR v2)
Track 2 cannot be verified as accurate (confidence 1) [298465B1], AccurateRip returned [F499BF84] (AR v2)
Track 3 cannot be verified as accurate (confidence 1) [C71EB4C3], AccurateRip returned [3EB59D72] (AR v2)
Track 4 cannot be verified as accurate (confidence 1) [3675B541], AccurateRip returned [F08CFCA6] (AR v2)
Track 5 cannot be verified as accurate (confidence 1) [6378CD9A], AccurateRip returned [A3649DA5] (AR v2)
Track 6 cannot be verified as accurate (confidence 1) [A576D2FF], AccurateRip returned [B55F4ACF] (AR v2)
Track 7 cannot be verified as accurate (confidence 1) [79E05788], AccurateRip returned [BA44F1F6] (AR v2)
Track 8 cannot be verified as accurate (confidence 1) [C3CFFA12], AccurateRip returned [C8E16BC0] (AR v2)
Track 9 cannot be verified as accurate (confidence 1) [F5A1AFEF], AccurateRip returned [001A83DE] (AR v2)
Track 10 cannot be verified as accurate (confidence 1) [F0893C7A], AccurateRip returned [1F58D43D] (AR v2)

No tracks could be verified as accurate
You may have a different pressing from the one(s) in the database

End of status report

==== Log checksum 68AAD936E0CE11CD668D1AD8042E8B25353E129D9E12FDC9F11C729F7AEB34BC ====

REM GENRE Rock
REM DATE 1990
REM DISCID AF10DE0E
REM COMMENT “ExactAudioCopy v1.0b3”
PERFORMER “The Rolling Stones”
TITLE “Live at the Tokyo Dome (CD1)”
FILE “The Rolling Stones – Live at the Tokyo Dome (CD1).flac” WAVE
TRACK 01 AUDIO
TITLE “Continental Drift”
PERFORMER “The Rolling Stones”
INDEX 01 00:00:00
TRACK 02 AUDIO
TITLE “Start Me Up”
PERFORMER “The Rolling Stones”
INDEX 01 00:51:40
TRACK 03 AUDIO
TITLE “Bitch”
PERFORMER “The Rolling Stones”
INDEX 01 04:53:57
TRACK 04 AUDIO
TITLE “Sad Sad Sad”
PERFORMER “The Rolling Stones”
INDEX 01 08:35:73
TRACK 05 AUDIO
TITLE “The Harlem Shuffle”
PERFORMER “The Rolling Stones”
INDEX 01 13:00:51
TRACK 06 AUDIO
TITLE “Tumbling Dice”
PERFORMER “The Rolling Stones”
INDEX 01 17:24:15
TRACK 07 AUDIO
TITLE “Miss You”
PERFORMER “The Rolling Stones”
INDEX 01 21:51:09
TRACK 08 AUDIO
TITLE “Ruby Tuesday”
PERFORMER “The Rolling Stones”
INDEX 01 28:20:42
TRACK 09 AUDIO
TITLE “Almost Hear You Sigh”
PERFORMER “The Rolling Stones”
INDEX 01 32:11:13
TRACK 10 AUDIO
TITLE “Rock And A Hard Place”
PERFORMER “The Rolling Stones”
INDEX 01 37:28:33
TRACK 11 AUDIO
TITLE “Mixed Emotion”
PERFORMER “The Rolling Stones”
INDEX 01 42:59:64
TRACK 12 AUDIO
TITLE “Honky Tonk Women”
PERFORMER “The Rolling Stones”
INDEX 01 48:30:53
TRACK 13 AUDIO
TITLE “Midnight Rambler”
PERFORMER “The Rolling Stones”
INDEX 01 53:31:26
TRACK 14 AUDIO
TITLE “You Can’t Always Get What You Want”
PERFORMER “The Rolling Stones”
INDEX 01 64:27:05

REM GENRE Rock
REM DATE 1990
REM DISCID 900F160A
REM COMMENT “ExactAudioCopy v1.0b3”
PERFORMER “The Rolling Stones”
TITLE “Live at the Tokyo Dome (CD2)”
FILE “The Rolling Stones – Live at the Tokyo Dome (CD2).flac” WAVE
TRACK 01 AUDIO
TITLE “Can’t Be Seen”
PERFORMER “The Rolling Stones”
INDEX 01 00:00:00
TRACK 02 AUDIO
TITLE “Happy”
PERFORMER “The Rolling Stones”
INDEX 01 05:39:65
TRACK 03 AUDIO
TITLE “Paint It Black”
PERFORMER “The Rolling Stones”
INDEX 01 10:07:61
TRACK 04 AUDIO
TITLE “2000 Light Years From Home”
PERFORMER “The Rolling Stones”
INDEX 01 14:14:24
TRACK 05 AUDIO
TITLE “Sympathy For The Devil”
PERFORMER “The Rolling Stones”
INDEX 01 21:22:69
TRACK 06 AUDIO
TITLE “Gimme Shelter”
PERFORMER “The Rolling Stones”
INDEX 01 29:06:69
TRACK 07 AUDIO
TITLE “It’s Only Rock ‘n Roll”
PERFORMER “The Rolling Stones”
INDEX 01 37:14:69
TRACK 08 AUDIO
TITLE “Brown Sugar”
PERFORMER “The Rolling Stones”
INDEX 01 41:42:00
TRACK 09 AUDIO
TITLE “(I Can’t Get No) Satisfaction”
PERFORMER “The Rolling Stones”
INDEX 01 46:16:20
TRACK 10 AUDIO
TITLE “Jumpin’ Jack Flash”
PERFORMER “The Rolling Stones”
INDEX 01 55:45:30


Leave a Reply

Your email address will not be published. Required fields are marked *

This site uses Akismet to reduce spam. Learn how your comment data is processed.