The Rolling Stones – Let It Bleed (Remastered)




No Cover available

Artist: The Rolling Stones
Year: 1969/1995
Genre: Rock
Notes: Discogs
Add. Notes: Remastered
Cover incl.: Yes
Encoder: FLAC
Bitrate: ~800 kBit/s (44.1 kHz/16 Bit/s)
Log & Cue incl.: Yes/Yes
Size: 276,3 MB
Password: “slam” (without ” “)


All Downloads/Hosters are compatible

Download 1
KatFile.com
Turbobit.net
FileFactory.com
Rapidgator.net
Download 2
KatFile.com
Turbobit.net
FileFactory.com
Rapidgator.net

Tracklist:

1 Gimme Shelter 4:31
2 Love In Vain 4:20
3 Country Honk 3:06
4 Live With Me 3:33
5 Let It Bleed 5:29
6 Midnight Rambler 6:54
7 You Got The Silver 2:51
8 Monkey Man 4:12
9 You Can't Always Get What You Want (Version 2) 7:30

EAC-Log, CUE-Sheed & NFO:

Click to open spoiler
Exact Audio Copy V1.0 beta 3 from 29. August 2011

EAC extraction logfile from 2. June 2013, 7:26

The Rolling Stones / Let It Bleed [ABKCO 844473-2]

Used drive : PLEXTOR DVDR PX-891SA Adapter: 1 ID: 0

Read mode : Secure
Utilize accurate stream : Yes
Defeat audio cache : Yes
Make use of C2 pointers : No

Read offset correction : 6
Overread into Lead-In and Lead-Out : No
Fill up missing offset samples with silence : Yes
Delete leading and trailing silent blocks : No
Null samples used in CRC calculations : Yes
Used interface : Native Win32 interface for Win NT & 2000

Used output format : User Defined Encoder
Selected bitrate : 1024 kBit/s
Quality : High
Add ID3 tag : No
Command line compressor : C:\Program Files\Exact Audio Copy\Flac\flac.exe
Additional command line options : -V -8 -T “Genre=%genre%” -T “Artist=%artist%” -T “Title=%title%” -T “Album=%albumtitle%” -T “Date=%year%” -T “Tracknumber=%tracknr%” -T “Comment=%comment%” %source%

TOC of the extracted CD

Track | Start | Length | Start sector | End sector
———————————————————
1 | 0:00.32 | 4:36.25 | 32 | 20756
2 | 4:36.57 | 4:22.55 | 20757 | 40461
3 | 8:59.37 | 3:10.38 | 40462 | 54749
4 | 12:10.00 | 3:36.62 | 54750 | 71011
5 | 15:46.62 | 5:34.20 | 71012 | 96081
6 | 21:21.07 | 6:57.13 | 96082 | 127369
7 | 28:18.20 | 2:55.00 | 127370 | 140494
8 | 31:13.20 | 4:15.35 | 140495 | 159654
9 | 35:28.55 | 7:30.20 | 159655 | 193424

Range status and errors

Selected range

Filename H:\dafnaplus\Rolling Stones – Let It Bleed [ABKCO 844473-2]\The Rolling Stones – Let It Bleed [ABKCO 844473-2].wav

Peak level 100.0 %
Extraction speed 7.4 X
Range quality 99.9 %
Test CRC EF2D93B8
Copy CRC EF2D93B8
Copy OK

No errors occurred

AccurateRip summary

Track 1 accurately ripped (confidence 5) [1403A29C] (AR v2)
Track 2 accurately ripped (confidence 4) [3F5A012A] (AR v2)
Track 3 accurately ripped (confidence 5) [C2C4FCAA] (AR v2)
Track 4 accurately ripped (confidence 5) [E185C889] (AR v2)
Track 5 accurately ripped (confidence 5) [D5F265A1] (AR v2)
Track 6 accurately ripped (confidence 5) [8D7577C6] (AR v2)
Track 7 accurately ripped (confidence 5) [EE39351B] (AR v2)
Track 8 accurately ripped (confidence 5) [3FF59504] (AR v2)
Track 9 accurately ripped (confidence 5) [712055FC] (AR v2)

All tracks accurately ripped

End of status report

==== Log checksum 3874006A343753B5816EBE4CE0759DB3A177C6907C80DFABAA03B8E0EE0AB366 ====

REM GENRE Rock
REM DATE 1986
REM DISCID 6F0A1309
REM COMMENT “ExactAudioCopy v1.0b3”
CATALOG 0422844473204
PERFORMER “The Rolling Stones”
TITLE “Let It Bleed [ABKCO 844473-2]”
FILE “The Rolling Stones – Let It Bleed [ABKCO 844473-2].flac” WAVE
TRACK 01 AUDIO
TITLE “Gimme Shelter”
PERFORMER “The Rolling Stones”
ISRC USA176910020
INDEX 00 00:00:00
INDEX 01 00:00:32
TRACK 02 AUDIO
TITLE “Love In Vain”
PERFORMER “The Rolling Stones”
ISRC USA176910030
INDEX 00 04:33:10
INDEX 01 04:36:57
TRACK 03 AUDIO
TITLE “Country Honk”
PERFORMER “The Rolling Stones”
ISRC USA176910040
INDEX 00 08:56:62
INDEX 01 08:59:37
TRACK 04 AUDIO
TITLE “Live With Me”
PERFORMER “The Rolling Stones”
ISRC USA176910050
INDEX 00 12:06:72
INDEX 01 12:10:00
TRACK 05 AUDIO
TITLE “Let It Bleed”
PERFORMER “The Rolling Stones”
ISRC USA176910060
INDEX 00 15:44:10
INDEX 01 15:46:62
TRACK 06 AUDIO
TITLE “Midnight Rambler”
PERFORMER “The Rolling Stones”
ISRC USA176910070
INDEX 00 21:16:10
INDEX 01 21:21:07
TRACK 07 AUDIO
TITLE “You Got The Silver”
PERFORMER “The Rolling Stones”
ISRC USA176910080
INDEX 00 28:14:60
INDEX 01 28:18:20
TRACK 08 AUDIO
TITLE “Monkey Man”
PERFORMER “The Rolling Stones”
ISRC USA176910090
INDEX 00 31:10:40
INDEX 01 31:13:20
TRACK 09 AUDIO
TITLE “You Can’t Always Get What You Want”
PERFORMER “The Rolling Stones”
ISRC USA176910100
INDEX 00 35:25:32
INDEX 01 35:28:55


Leave a Reply

Your email address will not be published. Required fields are marked *

Enter the text from the image below
 

This site uses Akismet to reduce spam. Learn how your comment data is processed.