The Rolling Stones – Let It Bleed (Reissue)




[Total: 0    Average: 0/5]

Artist: The Rolling Stones
Year: 1969/1986
Genre: Rock
Notes: Discogs
Add. Notes: Reissue
Cover incl.: Yes
Encoder: FLAC
Bitrate: ~800 kBit/s (44.1 kHz/16 Bit/s)
Log & Cue incl.: Yes
Size: 287,45 MB
Password: “slam” (without ” “)


All Downloads/Hosters are compatible

Download 1
Share-online.biz
KatFile.com
Rapidgator.net
Download 2
Share-online.biz
KatFile.com
Rapidgator.net

Tracklist:

1 - Gimme Shelter - 4:31
2 - Love In Vain - 4:20
3 - Country Honk - 3:06
4 - Live With Me - 3:33
5 - Let It Bleed - 5:29
6 - Midnight Rambler - 6:54
7 - You Got The Silver - 2:51
8 - Monkey Man - 4:12
9 - You Can't Always Get What You Want (Version 2) - 
7:30

EAC-Log, CUE-Sheed & NFO:

Click to open spoiler
Exact Audio Copy V1.0 beta 3 from 29. August 2011

EAC extraction logfile from 28. May 2013, 15:38

The Rolling Stones / Let It Bleed

Used drive : TSSTcorpCDDVDW SH-S203B Adapter: 2 ID: 0

Read mode : Secure
Utilize accurate stream : Yes
Defeat audio cache : Yes
Make use of C2 pointers : No

Read offset correction : 6
Overread into Lead-In and Lead-Out : No
Fill up missing offset samples with silence : Yes
Delete leading and trailing silent blocks : No
Null samples used in CRC calculations : Yes
Used interface : Native Win32 interface for Win NT & 2000

Used output format : Internal WAV Routines
Sample format : 44.100 Hz; 16 Bit; Stereo

TOC of the extracted CD

Track | Start | Length | Start sector | End sector
———————————————————
1 | 0:00.33 | 4:40.40 | 33 | 21072
2 | 4:40.73 | 4:26.45 | 21073 | 41067
3 | 9:07.43 | 3:12.52 | 41068 | 55519
4 | 12:20.20 | 3:40.63 | 55520 | 72082
5 | 16:01.08 | 5:37.67 | 72083 | 97424
6 | 21:39.00 | 7:00.38 | 97425 | 128962
7 | 28:39.38 | 2:59.35 | 128963 | 142422
8 | 31:38.73 | 4:19.67 | 142423 | 161914
9 | 35:58.65 | 7:33.63 | 161915 | 195952

Range status and errors

Selected range

Filename C:\Incoming\UncleSandy\The Rolling Stones – Let It Bleed.wav

Peak level 96.7 %
Extraction speed 6.7 X
Range quality 100.0 %
Test CRC 7DB59F41
Copy CRC 7DB59F41
Copy OK

No errors occurred

AccurateRip summary

Track 1 accurately ripped (confidence 16) [06630B11] (AR v2)
Track 2 accurately ripped (confidence 17) [93C6DB64] (AR v2)
Track 3 accurately ripped (confidence 18) [D4F6CBBE] (AR v2)
Track 4 accurately ripped (confidence 18) [7A8319A8] (AR v2)
Track 5 accurately ripped (confidence 18) [971EEEFB] (AR v2)
Track 6 accurately ripped (confidence 17) [067E9405] (AR v2)
Track 7 accurately ripped (confidence 17) [1F6DF62C] (AR v2)
Track 8 accurately ripped (confidence 17) [97EA8961] (AR v2)
Track 9 accurately ripped (confidence 17) [A11BC3E0] (AR v2)

All tracks accurately ripped

End of status report

==== Log checksum 857C625E34379FD09BD89A24657E87B175EAFE218FBAED7C8B93132BF5BDB9B1 ====

REM GENRE Rock
REM DATE 1969
REM DISCID 620A3409
REM COMMENT “ExactAudioCopy v1.0b3”
CATALOG 0042282005229
PERFORMER “The Rolling Stones”
TITLE “Let It Bleed”
FILE “The Rolling Stones – Let It Bleed.flac” WAVE
TRACK 01 AUDIO
TITLE “Gimme Shelter”
PERFORMER “The Rolling Stones”
ISRC H28Y76930101
INDEX 00 00:00:00
INDEX 01 00:00:33
TRACK 02 AUDIO
TITLE “Love In Vain”
PERFORMER “The Rolling Stones”
ISRC H28Y76930102
INDEX 00 04:34:18
INDEX 01 04:40:73
TRACK 03 AUDIO
TITLE “Country Honk”
PERFORMER “The Rolling Stones”
ISRC H28Y76930103
INDEX 00 09:02:65
INDEX 01 09:07:43
TRACK 04 AUDIO
TITLE “Live With Me”
PERFORMER “The Rolling Stones”
ISRC H28Y76930104
INDEX 00 12:15:35
INDEX 01 12:20:20
TRACK 05 AUDIO
TITLE “Let It Bleed”
PERFORMER “The Rolling Stones”
ISRC H28Y76930105
INDEX 00 15:53:58
INDEX 01 16:01:08
TRACK 06 AUDIO
TITLE “Midnight Rambler”
PERFORMER “The Rolling Stones”
ISRC H28Y76930106
INDEX 00 21:32:05
INDEX 01 21:39:00
TRACK 07 AUDIO
TITLE “You Got The Silver”
PERFORMER “The Rolling Stones”
ISRC H28Y76930107
INDEX 00 28:33:50
INDEX 01 28:39:38
TRACK 08 AUDIO
TITLE “Monkey Man”
PERFORMER “The Rolling Stones”
ISRC H28Y76930108
INDEX 00 31:33:65
INDEX 01 31:38:73
TRACK 09 AUDIO
TITLE “You Can’t Always Get What You Want”
PERFORMER “The Rolling Stones”
ISRC H28Y76930109
INDEX 00 35:52:70
INDEX 01 35:58:65


Spread the Download

Leave a Reply

Your email address will not be published. Required fields are marked *

Enter the text from the image below
 

This site uses Akismet to reduce spam. Learn how your comment data is processed.