The Rolling Stones – Ladies & Gentlemen




Artist: The Rolling Stones
Year: 2017
Genre: Rock
Notes: Discogs
Add. Notes:
Cover incl.: Yes
Encoder: FLAC
Bitrate: ~1000 kBit/s (44.1 kHz/16 Bit/s)
Log & Cue incl.: Yes
Size: 565,89 MB
Password: “slam” (without ” “)


All Downloads/Hosters are compatible

Download 1
Turbobit.net
KatFile.com
Rapidgator.net
Download 2
Turbobit.net
KatFile.com
Rapidgator.net

Tracklist:

1. Intro (0:48)
2. Brown Sugar (3:13)
3. Bitch (4:45)
4. Gimme Shelter (4:50)
5. Dead Flowers (4:03)
6. Happy (3:14)
7. Tumbling Dice (5:21)
8. Love In Vain (6:17)
9. Sweet Virginia (4:45)
10. You Can't Always Get What You Want (7:26)
11. All Down The Line (4:46)
12. Midnight Rambler (12:01)
13. Bye Bye Johnny (4:31)
14. Rip This Joint (2:32)
15. Jumpin' Jack Flash (3:38)
16. Street Fighting Man (4:14)

EAC-Log, CUE-Sheed & NFO:

Click to open spoiler
Exact Audio Copy V1.3 from 2. September 2016

EAC extraction logfile from 8. June 2017, 17:03

The Rolling Stones / Ladies & Gentlemen

Used drive : HL-DT-STDVD+-RW GH50N Adapter: 1 ID: 0

Read mode : Secure
Utilize accurate stream : Yes
Defeat audio cache : Yes
Make use of C2 pointers : No

Read offset correction : 667
Overread into Lead-In and Lead-Out : No
Fill up missing offset samples with silence : Yes
Delete leading and trailing silent blocks : No
Null samples used in CRC calculations : Yes
Used interface : Native Win32 interface for Win NT & 2000

Used output format : User Defined Encoder
Selected bitrate : 768 kBit/s
Quality : High
Add ID3 tag : No
Command line compressor : C:\Program Files (x86)\Exact Audio Copy\FLAC\FLAC.EXE
Additional command line options : -V -8 -T “Date=%year%” -T “Genre=%genre%” %source%

TOC of the extracted CD

Track | Start | Length | Start sector | End sector
———————————————————
1 | 0:00.00 | 0:48.00 | 0 | 3599
2 | 0:48.00 | 3:13.55 | 3600 | 18129
3 | 4:01.55 | 4:45.65 | 18130 | 39569
4 | 8:47.45 | 4:50.37 | 39570 | 61356
5 | 13:38.07 | 4:03.04 | 61357 | 79585
6 | 17:41.11 | 3:14.45 | 79586 | 94180
7 | 20:55.56 | 5:21.00 | 94181 | 118255
8 | 26:16.56 | 6:17.50 | 118256 | 146580
9 | 32:34.31 | 4:45.13 | 146581 | 167968
10 | 37:19.44 | 7:26.68 | 167969 | 201486
11 | 44:46.37 | 4:46.70 | 201487 | 223006
12 | 49:33.32 | 12:01.57 | 223007 | 277138
13 | 61:35.14 | 4:31.64 | 277139 | 297527
14 | 66:07.03 | 2:32.55 | 297528 | 308982
15 | 68:39.58 | 3:38.66 | 308983 | 325398
16 | 72:18.49 | 4:14.57 | 325399 | 344505

Range status and errors

Selected range

Filename C:\222\RUTRA1\Add\2017 – The Rolling Stones – Ladies And Gentlemen\The Rolling Stones – Ladies & Gentlemen.wav

Peak level 97.9 %
Extraction speed 3.3 X
Range quality 100.0 %
Test CRC 6591F907
Copy CRC 6591F907
Copy OK

No errors occurred

AccurateRip summary

Track 1 not present in database
Track 2 not present in database
Track 3 not present in database
Track 4 not present in database
Track 5 not present in database
Track 6 not present in database
Track 7 not present in database
Track 8 not present in database
Track 9 not present in database
Track 10 not present in database
Track 11 not present in database
Track 12 not present in database
Track 13 not present in database
Track 14 not present in database
Track 15 not present in database
Track 16 not present in database

None of the tracks are present in the AccurateRip database

End of status report

—- CUETools DB Plugin V2.1.6

[CTDB TOCID: w_4pI1CJcKbBk1PtMij4FZD04Zk-] found
Submit result: w_4pI1CJcKbBk1PtMij4FZD04Zk- has been confirmed
Track | CTDB Status
1 | (3/3) Accurately ripped
2 | (3/3) Accurately ripped
3 | (3/3) Accurately ripped
4 | (3/3) Accurately ripped
5 | (3/3) Accurately ripped
6 | (3/3) Accurately ripped
7 | (3/3) Accurately ripped
8 | (3/3) Accurately ripped
9 | (3/3) Accurately ripped
10 | (3/3) Accurately ripped
11 | (3/3) Accurately ripped
12 | (3/3) Accurately ripped
13 | (3/3) Accurately ripped
14 | (3/3) Accurately ripped
15 | (3/3) Accurately ripped
16 | (3/3) Accurately ripped

==== Log checksum 5AD61315085D96C96695A76EAD277C554A91B7DF67B7ADF1FC5239BB09F654CF ====

REM GENRE “Classic Rock”
REM DATE 2017
REM DISCID EC11F110
REM COMMENT “ExactAudioCopy v1.3”
PERFORMER “The Rolling Stones”
TITLE “Ladies & Gentlemen”
REM COMPOSER “”
FILE “The Rolling Stones – Ladies & Gentlemen.flac” WAVE
TRACK 01 AUDIO
TITLE “Intro”
PERFORMER “The Rolling Stones”
REM COMPOSER “”
INDEX 01 00:00:00
TRACK 02 AUDIO
TITLE “Brown Sugar”
PERFORMER “The Rolling Stones”
REM COMPOSER “”
INDEX 01 00:48:00
TRACK 03 AUDIO
TITLE “Bitch”
PERFORMER “The Rolling Stones”
REM COMPOSER “”
INDEX 01 04:01:55
TRACK 04 AUDIO
TITLE “Gimme Shelter”
PERFORMER “The Rolling Stones”
REM COMPOSER “”
INDEX 01 08:47:45
TRACK 05 AUDIO
TITLE “Dead Flowers”
PERFORMER “The Rolling Stones”
REM COMPOSER “”
INDEX 01 13:38:07
TRACK 06 AUDIO
TITLE “Happy”
PERFORMER “The Rolling Stones”
REM COMPOSER “”
INDEX 01 17:41:11
TRACK 07 AUDIO
TITLE “Tumbling Dice”
PERFORMER “The Rolling Stones”
REM COMPOSER “”
INDEX 01 20:55:56
TRACK 08 AUDIO
TITLE “Love In Vain”
PERFORMER “The Rolling Stones”
REM COMPOSER “”
INDEX 01 26:16:56
TRACK 09 AUDIO
TITLE “Sweet Virginia”
PERFORMER “The Rolling Stones”
REM COMPOSER “”
INDEX 01 32:34:31
TRACK 10 AUDIO
TITLE “You Can’t Always Get What You Want”
PERFORMER “The Rolling Stones”
REM COMPOSER “”
INDEX 01 37:19:44
TRACK 11 AUDIO
TITLE “All Down The Line”
PERFORMER “The Rolling Stones”
REM COMPOSER “”
INDEX 01 44:46:37
TRACK 12 AUDIO
TITLE “Midnight Rambler”
PERFORMER “The Rolling Stones”
REM COMPOSER “”
INDEX 01 49:33:32
TRACK 13 AUDIO
TITLE “Bye Bye Johnny”
PERFORMER “The Rolling Stones”
REM COMPOSER “”
INDEX 01 61:35:14
TRACK 14 AUDIO
TITLE “Rip This Joint”
PERFORMER “The Rolling Stones”
REM COMPOSER “”
INDEX 01 66:07:03
TRACK 15 AUDIO
TITLE “Jumpin’ Jack Flash”
PERFORMER “The Rolling Stones”
REM COMPOSER “”
INDEX 01 68:39:58
TRACK 16 AUDIO
TITLE “Street Fighting Man”
PERFORMER “The Rolling Stones”
REM COMPOSER “”
INDEX 01 72:18:49


Leave a Reply

Your email address will not be published. Required fields are marked *

This site uses Akismet to reduce spam. Learn how your comment data is processed.