The Rolling Stones – L.A. Forum (Live In 1975) (Remastered)




[Total: 0    Average: 0/5]

Artist: The Rolling Stones
Year: 2012
Genre: Rock
Notes: Discogs
Add. Notes: Remastered
Cover incl.: Yes
Encoder: FLAC
Bitrate: ~1000 kBit/s (44.1 kHz/16 Bit/s)
Log & Cue incl.: Yes
Size: 1047,49 MB
Password: “slam” (without ” “)


All Downloads/Hosters are compatible

Download 1
Share-online.biz
KatFile.com
Rapidgator.net
Turbobit.net
Download 2
Share-online.biz
KatFile.com
Rapidgator.net
Turbobit.net

Tracklist:

1-1 - Honky Tonk Women - 5:29
1-2 - All Down The Line - 4:05
1-3 - If You Can't Rock Me/Get Off Of My Cloud - 3:24
1-4 - Star Star - 4:45
1-5 - Gimme Shelter - 6:12
1-6 - Ain't Too Proud To Beg - 4:24
1-7 - You Gotta Move - 4:32
1-8 - You Can't Always Get What You Want - 15:23
1-9 - Happy - 3:58
1-10 - Tumbling Dice - 5:23
1-11 - Band Intros - 1:21
1-12 - It's Only Rock 'n' Roll - 6:04
1-13 - Doo Doo Doo Doo Doo (Heartbreaker) - 4:35

2-1 - Fingerprint File - 9:23
2-2 - Angie - 5:18
2-3 - Wild Horses - 7:25
2-4 - That's Life - 3:17
2-5 - Outa-Space - 4:05
2-6 - Brown Sugar - 4:15
2-7 - Midnight Rambler - 15:15
2-8 - Rip This Joint - 2:06
2-9 - Street Fighting Man - 4:05
2-10 - Jumpin' Jack Flash - 6:57
2-11 - Sympathy For The Devil - 10:21

EAC-Log, CUE-Sheed & NFO:

Click to open spoiler
Exact Audio Copy V1.0 beta 3 from 29. August 2011

EAC extraction logfile from 21. November 2014, 10:01

The Rolling Stones / L.A. Forum – Live In 1975 [disc 1]

Used drive : HL-DT-STDVD+-RW GH50N Adapter: 0 ID: 1

Read mode : Secure
Utilize accurate stream : Yes
Defeat audio cache : Yes
Make use of C2 pointers : No

Read offset correction : 667
Overread into Lead-In and Lead-Out : No
Fill up missing offset samples with silence : Yes
Delete leading and trailing silent blocks : No
Null samples used in CRC calculations : Yes
Used interface : Native Win32 interface for Win NT & 2000

Used output format : User Defined Encoder
Selected bitrate : 768 kBit/s
Quality : High
Add ID3 tag : No
Command line compressor : C:\Program Files (x86)\Exact Audio Copy\FLAC\FLAC.EXE
Additional command line options : -V -8 -T “Date=%year%” -T “Genre=%genre%” %source%

TOC of the extracted CD

Track | Start | Length | Start sector | End sector
———————————————————
1 | 0:00.00 | 5:29.01 | 0 | 24675
2 | 5:29.01 | 4:05.28 | 24676 | 43078
3 | 9:34.29 | 7:27.06 | 43079 | 76609
4 | 17:01.35 | 4:45.44 | 76610 | 98028
5 | 21:47.04 | 6:12.11 | 98029 | 125939
6 | 27:59.15 | 4:25.01 | 125940 | 145815
7 | 32:24.16 | 4:32.66 | 145816 | 166281
8 | 36:57.07 | 15:22.73 | 166282 | 235504
9 | 52:20.05 | 3:58.73 | 235505 | 253427
10 | 56:19.03 | 5:23.51 | 253428 | 277703
11 | 61:42.54 | 1:20.57 | 277704 | 283760
12 | 63:03.36 | 6:04.24 | 283761 | 311084
13 | 69:07.60 | 4:34.46 | 311085 | 331680

Range status and errors

Selected range

Filename C:\222\Vault\1975 – LA Forum\CD1\The Rolling Stones – L.A. Forum – Live In 1975 [disc 1].wav

Peak level 100.0 %
Extraction speed 3.4 X
Range quality 100.0 %
Test CRC 45720DF2
Copy CRC 45720DF2
Copy OK

No errors occurred

AccurateRip summary

Track 1 not present in database
Track 2 not present in database
Track 3 not present in database
Track 4 not present in database
Track 5 not present in database
Track 6 not present in database
Track 7 not present in database
Track 8 not present in database
Track 9 not present in database
Track 10 not present in database
Track 11 not present in database
Track 12 not present in database
Track 13 not present in database

None of the tracks are present in the AccurateRip database

End of status report

==== Log checksum 41C3D7121E475586D45E7DFC7E846C7BA0205D317E0435F75D2B87BD509A4ED1 ====

Exact Audio Copy V1.0 beta 3 from 29. August 2011

EAC extraction logfile from 20. November 2014, 16:42

The Rolling Stones / L.A. Forum – Live In 1975 [disc 2]

Used drive : HL-DT-STDVD+-RW GH50N Adapter: 0 ID: 1

Read mode : Secure
Utilize accurate stream : Yes
Defeat audio cache : Yes
Make use of C2 pointers : No

Read offset correction : 667
Overread into Lead-In and Lead-Out : No
Fill up missing offset samples with silence : Yes
Delete leading and trailing silent blocks : No
Null samples used in CRC calculations : Yes
Used interface : Native Win32 interface for Win NT & 2000

Used output format : User Defined Encoder
Selected bitrate : 768 kBit/s
Quality : High
Add ID3 tag : No
Command line compressor : C:\Program Files (x86)\Exact Audio Copy\FLAC\FLAC.EXE
Additional command line options : -V -8 -T “Date=%year%” -T “Genre=%genre%” %source%

TOC of the extracted CD

Track | Start | Length | Start sector | End sector
———————————————————
1 | 0:00.00 | 9:59.71 | 0 | 44995
2 | 9:59.71 | 5:18.09 | 44996 | 68854
3 | 15:18.05 | 7:25.25 | 68855 | 102254
4 | 22:43.30 | 3:17.26 | 102255 | 117055
5 | 26:00.56 | 4:04.53 | 117056 | 135408
6 | 30:05.34 | 4:15.67 | 135409 | 154600
7 | 34:21.26 | 15:15.14 | 154601 | 223239
8 | 49:36.40 | 2:06.17 | 223240 | 232706
9 | 51:42.57 | 4:05.57 | 232707 | 251138
10 | 55:48.39 | 6:57.42 | 251139 | 282455
11 | 62:46.06 | 10:22.13 | 282456 | 329118

Range status and errors

Selected range

Filename C:\222\Vault\1975 – LA Forum\CD2\The Rolling Stones – L.A. Forum – Live In 1975 [disc 2].wav

Peak level 100.0 %
Extraction speed 3.4 X
Range quality 100.0 %
Test CRC 49AE0AE7
Copy CRC 49AE0AE7
Copy OK

No errors occurred

AccurateRip summary

Track 1 not present in database
Track 2 not present in database
Track 3 not present in database
Track 4 not present in database
Track 5 not present in database
Track 6 not present in database
Track 7 not present in database
Track 8 not present in database
Track 9 not present in database
Track 10 not present in database
Track 11 not present in database

None of the tracks are present in the AccurateRip database

End of status report

==== Log checksum C75C1AAB9191250B4A0EEC272C9BEABD8D1BE164FEAFF2C91DC99DE3CEBF05DD ====

REM GENRE Rock
REM DATE 2014
REM DISCID B011460D
REM COMMENT “ExactAudioCopy v1.0b3”
PERFORMER “The Rolling Stones”
TITLE “L.A. Forum – Live In 1975 [disc 1]”
FILE “The Rolling Stones – L.A. Forum – Live In 1975 [disc 1].flac” WAVE
TRACK 01 AUDIO
TITLE “Honky Tonk Women”
PERFORMER “The Rolling Stones”
INDEX 01 00:00:00
TRACK 02 AUDIO
TITLE “All Down The Line”
PERFORMER “The Rolling Stones”
INDEX 01 05:29:01
TRACK 03 AUDIO
TITLE “If You Can’t Rock Me / Get Off Of My Cloud”
PERFORMER “The Rolling Stones”
INDEX 01 09:34:29
TRACK 04 AUDIO
TITLE “Star Star”
PERFORMER “The Rolling Stones”
INDEX 01 17:01:35
TRACK 05 AUDIO
TITLE “Gimme Shelter”
PERFORMER “The Rolling Stones”
INDEX 01 21:47:04
TRACK 06 AUDIO
TITLE “Ain’t Too Proud To Beg”
PERFORMER “The Rolling Stones”
INDEX 01 27:59:15
TRACK 07 AUDIO
TITLE “You Gotta Move”
PERFORMER “The Rolling Stones”
INDEX 01 32:24:16
TRACK 08 AUDIO
TITLE “You Can’t Always Get What You Want”
PERFORMER “The Rolling Stones”
INDEX 01 36:57:07
TRACK 09 AUDIO
TITLE “Happy”
PERFORMER “The Rolling Stones”
INDEX 01 52:20:05
TRACK 10 AUDIO
TITLE “Timbling Dice”
PERFORMER “The Rolling Stones”
INDEX 01 56:19:03
TRACK 11 AUDIO
TITLE “Band Intros”
PERFORMER “The Rolling Stones”
INDEX 01 61:42:54
TRACK 12 AUDIO
TITLE “It’s Only Rock’n’Roll”
PERFORMER “The Rolling Stones”
INDEX 01 63:03:36
TRACK 13 AUDIO
TITLE “Doo Doo Doo Doo Doo (Heartbreaker)”
PERFORMER “The Rolling Stones”
INDEX 01 69:07:60

REM GENRE Rock
REM DATE 2014
REM DISCID 9111240B
REM COMMENT “ExactAudioCopy v1.0b3”
PERFORMER “The Rolling Stones”
TITLE “L.A. Forum – Live In 1975 [disc 2]”
FILE “The Rolling Stones – L.A. Forum – Live In 1975 [disc 2].flac” WAVE
TRACK 01 AUDIO
TITLE “Fingerprint File”
PERFORMER “The Rolling Stones”
INDEX 01 00:00:00
TRACK 02 AUDIO
TITLE “Angie”
PERFORMER “The Rolling Stones”
INDEX 01 09:59:71
TRACK 03 AUDIO
TITLE “Wild Horses”
PERFORMER “The Rolling Stones”
INDEX 01 15:18:05
TRACK 04 AUDIO
TITLE “That’s Life with Billy Preston”
PERFORMER “The Rolling Stones”
INDEX 01 22:43:30
TRACK 05 AUDIO
TITLE “Outa-Space with Billy Preston”
PERFORMER “The Rolling Stones”
INDEX 01 26:00:56
TRACK 06 AUDIO
TITLE “Brown Sugar”
PERFORMER “The Rolling Stones”
INDEX 01 30:05:34
TRACK 07 AUDIO
TITLE “Midnight Rambler”
PERFORMER “The Rolling Stones”
INDEX 01 34:21:26
TRACK 08 AUDIO
TITLE “Rip This Joint”
PERFORMER “The Rolling Stones”
INDEX 01 49:36:40
TRACK 09 AUDIO
TITLE “Street Fighting Man”
PERFORMER “The Rolling Stones”
INDEX 01 51:42:57
TRACK 10 AUDIO
TITLE “Jumpin’ Jack Flash”
PERFORMER “The Rolling Stones”
INDEX 01 55:48:39
TRACK 11 AUDIO
TITLE “Sympathy For The Devil”
PERFORMER “The Rolling Stones”
INDEX 01 62:46:06


Spread the Download

Leave a Reply

Your email address will not be published. Required fields are marked *

Enter the text from the image below
 

This site uses Akismet to reduce spam. Learn how your comment data is processed.