The Rolling Stones – Jump Back (The Best Of The Rolling Stones ’71 – ’93) (Remastered)




No Cover available

Release: The_Rolling_Stones_-_Jump_Back_Polydor_0602527102092
Artist: The Rolling Stones
Year: 1993/2009
Genre: Rock
Notes: Discogs
Add. Notes: Remastered
Watch Songs on: YouTube
Cover incl.: Yes
Encoder: FLAC
Bitrate: ~1000 kBit/s (44.1 kHz/16 Bit/s)
Log & Cue incl.: Yes/Yes
Size: 532 MB
Password: “slam” (without ” “)


All Downloads/Hosters are compatible

Download 1
KatFile.com
Turbobit.net
Rapidgator.net
FileFactory.com
Download 2
KatFile.com
Turbobit.net
Rapidgator.net
FileFactory.com

Tracklist:

1 Start Me Up 3:34
2 Brown Sugar 3:49
3 Harlem Shuffle 3:24
4 It's Only Rock'N Roll 5:08
5 Mixed Emotions 4:00
6 Angie 4:32
7 Tumbling Dice 3:46
8 Fool To Cry 4:06
9 Rock And A Hard Place 4:11
10 Miss You 3:36
11 Hot Stuff 3:29
12 Emotional Rescue 5:40
13 Respectable 3:07
14 Beast Of Burden 3:29
15 Waiting For A Friend 4:35
16 Wild Horses 5:43
17 Bitch 3:37
18 Undercover Of The Night 4:33

EAC-Log, CUE-Sheed & NFO:

Click to open spoiler
Exact Audio Copy V0.99 prebeta 4 from 23. January 2008

Отчёт EAC об извлечении, выполненном 3. октября 2009, 13:02

The Rolling Stones / Jump Back

Дисковод: Optiarc DVD RW AD-7203S Adapter: 1 ID: 1

Режим чтения : Достоверность
Использование точного потока : Да
Отключение кэша аудио : Да
Использование указателей C2 : Нет

Коррекция смещения при чтении : 48
Способность читать области Lead-in и Lead-out : Нет
Заполнение пропущенных сэмплов тишиной : Да
Удаление блоков с тишиной в начале и конце : Нет
При вычислениях CRC использовались нулевые сэмплы : Да
Интерфейс : Встроенный Win32-интерфейс для Win NT/2000

Выходной формат : Пользовательский кодировщик
Выбранный битрейт : 1024 kBit/s
Качество : Высокий
Добавление ID3-тэга : Нет
Утилита сжатия : C:\Program Files\Exact Audio Copy\Flac\flac.exe
Дополнительные параметры : -V -8 -T “artist=%a” -T “title=%t” -T “album=%g” -T “date=%y” -T “tracknumber=%n” -T “genre=%m” %s

TOC извлечённого CD

Трек | Старт | Длительность | Начальный сектор | Конечный сектор
———————————————————————
1 | 0:00.00 | 3:33.20 | 0 | 15994
2 | 3:33.20 | 3:49.35 | 15995 | 33204
3 | 7:22.55 | 3:24.55 | 33205 | 48559
4 | 10:47.35 | 5:08.55 | 48560 | 71714
5 | 15:56.15 | 4:00.57 | 71715 | 89771
6 | 19:56.72 | 4:32.43 | 89772 | 110214
7 | 24:29.40 | 3:46.72 | 110215 | 127236
8 | 28:16.37 | 4:07.03 | 127237 | 145764
9 | 32:23.40 | 4:11.45 | 145765 | 164634
10 | 36:35.10 | 4:49.62 | 164635 | 186371
11 | 41:24.72 | 3:30.50 | 186372 | 202171
12 | 44:55.47 | 5:40.50 | 202172 | 227721
13 | 50:36.22 | 3:07.53 | 227722 | 241799
14 | 53:44.00 | 3:28.22 | 241800 | 257421
15 | 57:12.22 | 4:35.18 | 257422 | 278064
16 | 61:47.40 | 5:42.65 | 278065 | 303779
17 | 67:30.30 | 3:37.50 | 303780 | 320104
18 | 71:08.05 | 4:33.37 | 320105 | 340616

Характеристики диапазона извлечения и сообщения об ошибках

Выбранный диапазон

Имя файла D:\EAC-FOLDER\The Rolling Stones – Jump Back (remastering 2009)\The Rolling Stones – Jump Back (remastering 2009)\The Rolling Stones – Jump Back.wav

Пиковый уровень 99.8 %
Качество диапазона 100.0 %
CRC теста ADE72F39
CRC копии ADE72F39
Копирование… OK

Ошибок не произошло

AccurateRip: сводка

Трек 1 нет в базе данных
Трек 2 нет в базе данных
Трек 3 нет в базе данных
Трек 4 нет в базе данных
Трек 5 нет в базе данных
Трек 6 нет в базе данных
Трек 7 нет в базе данных
Трек 8 нет в базе данных
Трек 9 нет в базе данных
Трек 10 нет в базе данных
Трек 11 нет в базе данных
Трек 12 нет в базе данных
Трек 13 нет в базе данных
Трек 14 нет в базе данных
Трек 15 нет в базе данных
Трек 16 нет в базе данных
Трек 17 нет в базе данных
Трек 18 нет в базе данных

Ни одного трека нет в базе AccurateRip

Конец отчёта

REM GENRE Rock
REM DATE 1993
REM DISCID 1E11BD12
REM COMMENT “ExactAudioCopy v0.99pb4”
PERFORMER “The Rolling Stones”
TITLE “Jump Back”
FILE “The Rolling Stones – Jump Back.flac” WAVE
TRACK 01 AUDIO
TITLE “Start Me Up”
PERFORMER “The Rolling Stones”
INDEX 01 00:00:00
TRACK 02 AUDIO
TITLE “Brown Sugar”
PERFORMER “The Rolling Stones”
INDEX 00 03:33:05
INDEX 01 03:33:20
TRACK 03 AUDIO
TITLE “Harlem Shuffle”
PERFORMER “The Rolling Stones”
INDEX 00 07:21:70
INDEX 01 07:22:55
TRACK 04 AUDIO
TITLE “It’s Only Rock ‘N Roll”
PERFORMER “The Rolling Stones”
INDEX 00 10:47:12
INDEX 01 10:47:35
TRACK 05 AUDIO
TITLE “Mixed Emotions”
PERFORMER “The Rolling Stones”
INDEX 00 15:55:22
INDEX 01 15:56:15
TRACK 06 AUDIO
TITLE “Angie”
PERFORMER “The Rolling Stones”
INDEX 00 19:55:62
INDEX 01 19:56:72
TRACK 07 AUDIO
TITLE “Tumbling Dice”
PERFORMER “The Rolling Stones”
INDEX 00 24:28:70
INDEX 01 24:29:40
TRACK 08 AUDIO
TITLE “Fool To Cry”
PERFORMER “The Rolling Stones”
INDEX 00 28:15:65
INDEX 01 28:16:37
TRACK 09 AUDIO
TITLE “Rock And A Hard Place”
PERFORMER “The Rolling Stones”
INDEX 01 32:23:40
TRACK 10 AUDIO
TITLE “Miss You”
PERFORMER “The Rolling Stones”
INDEX 00 36:34:67
INDEX 01 36:35:10
TRACK 11 AUDIO
TITLE “Hot Stuff”
PERFORMER “The Rolling Stones”
INDEX 00 41:23:65
INDEX 01 41:24:72
TRACK 12 AUDIO
TITLE “Emotional Rescue”
PERFORMER “The Rolling Stones”
INDEX 00 44:55:15
INDEX 01 44:55:47
TRACK 13 AUDIO
TITLE “Respectable”
PERFORMER “The Rolling Stones”
INDEX 00 50:35:20
INDEX 01 50:36:22
TRACK 14 AUDIO
TITLE “Beast Of Burden”
PERFORMER “The Rolling Stones”
INDEX 00 53:43:22
INDEX 01 53:44:00
TRACK 15 AUDIO
TITLE “Waiting On A Friend”
PERFORMER “The Rolling Stones”
INDEX 00 57:12:05
INDEX 01 57:12:22
TRACK 16 AUDIO
TITLE “Wild Horses”
PERFORMER “The Rolling Stones”
INDEX 00 61:46:40
INDEX 01 61:47:40
TRACK 17 AUDIO
TITLE “Bitch”
PERFORMER “The Rolling Stones”
INDEX 00 67:29:25
INDEX 01 67:30:30
TRACK 18 AUDIO
TITLE “Undercover Of The Night”
PERFORMER “The Rolling Stones”
INDEX 00 71:07:37
INDEX 01 71:08:05


Leave a Reply

Your email address will not be published. Required fields are marked *

Enter the text from the image below
 

This site uses Akismet to reduce spam. Learn how your comment data is processed.