The Rolling Stones – It’s Only Rock ‘N Roll (Remastered)




No Cover available

Artist: The Rolling Stones
Year: 1974/1994
Genre: Rock
Notes: Discogs
Add. Notes: Remastered
Watch Songs on: YouTube
Cover incl.: Yes
Encoder: FLAC
Bitrate: ~900 kBit/s (44.1 kHz/16 Bit/s)
Log & Cue incl.: Yes/Yes
Size: 334,1 MB
Password: “slam” (without ” “)


All Downloads/Hosters are compatible

Download 1
KatFile.com
Turbobit.net
Rapidgator.net
FileFactory.com
Download 2
KatFile.com
Turbobit.net
Rapidgator.net
FileFactory.com

Tracklist:

1 If You Can't Rock Me 3:47
2 Ain't Too Proud To Beg 3:32
3 It's Only Rock 'N Roll (But I Like It) 5:08
4 Till The Next Goodbye 4:39
5 Time Waits For No One 6:31
6 Luxury 4:30
7 Dance Little Sister 4:12
8 If You Really Want To Be My Friend 6:17
9 Short And Curlies 2:44
10 Fingerprint File 6:41

EAC-Log, CUE-Sheed & NFO:

Click to open spoiler
Exact Audio Copy V1.0 beta 3 from 29. August 2011

EAC extraction logfile from 4. February 2013, 9:19

The Rolling Stones / It’s Only Rock ‘N Roll

Used drive : TSSTcorpCDDVDW SH-S203B Adapter: 2 ID: 0

Read mode : Secure
Utilize accurate stream : Yes
Defeat audio cache : Yes
Make use of C2 pointers : No

Read offset correction : 6
Overread into Lead-In and Lead-Out : No
Fill up missing offset samples with silence : Yes
Delete leading and trailing silent blocks : No
Null samples used in CRC calculations : Yes
Used interface : Native Win32 interface for Win NT & 2000

Used output format : Internal WAV Routines
Sample format : 44.100 Hz; 16 Bit; Stereo

TOC of the extracted CD

Track | Start | Length | Start sector | End sector
———————————————————
1 | 0:00.00 | 3:46.65 | 0 | 17014
2 | 3:46.65 | 3:31.22 | 17015 | 32861
3 | 7:18.12 | 5:07.13 | 32862 | 55899
4 | 12:25.25 | 4:36.60 | 55900 | 76659
5 | 17:02.10 | 6:38.15 | 76660 | 106524
6 | 23:40.25 | 5:01.10 | 106525 | 129109
7 | 28:41.35 | 4:11.10 | 129110 | 147944
8 | 32:52.45 | 6:16.62 | 147945 | 176206
9 | 39:09.32 | 2:43.50 | 176207 | 188481
10 | 41:53.07 | 6:33.23 | 188482 | 217979

Range status and errors

Selected range

Filename C:\Incoming\UncleSandy\The Rolling Stones – It’s Only Rock ‘N Roll.wav

Peak level 98.5 %
Extraction speed 7.0 X
Range quality 100.0 %
Test CRC 526C74A4
Copy CRC 526C74A4
Copy OK

No errors occurred

AccurateRip summary

Track 1 accurately ripped (confidence 6) [BB14557D] (AR v2)
Track 2 accurately ripped (confidence 7) [0998CAF1] (AR v2)
Track 3 accurately ripped (confidence 7) [15A6B3EB] (AR v2)
Track 4 accurately ripped (confidence 7) [34D998A6] (AR v2)
Track 5 accurately ripped (confidence 7) [5A540D11] (AR v2)
Track 6 accurately ripped (confidence 7) [4AA56A80] (AR v2)
Track 7 accurately ripped (confidence 7) [EAEFC254] (AR v2)
Track 8 accurately ripped (confidence 7) [ADBC18B7] (AR v2)
Track 9 accurately ripped (confidence 6) [EDA515A8] (AR v2)
Track 10 accurately ripped (confidence 7) [E2F055A8] (AR v2)

All tracks accurately ripped

End of status report

==== Log checksum 46E91F68DF705E7A1FFE1D4DE84279FB2935F964BFCA4462BDFCA836C8700C63 ====

^REM GENRE Rock
REM DATE 1974
REM DISCID 720B5A0A
REM COMMENT “ExactAudioCopy v1.0b3”
PERFORMER “The Rolling Stones”
TITLE “It’s Only Rock ‘N Roll”
FILE “The Rolling Stones – It’s Only Rock ‘N Roll.flac” WAVE
TRACK 01 AUDIO
TITLE “If You Can’t Rock Me”
PERFORMER “The Rolling Stones”
INDEX 01 00:00:00
TRACK 02 AUDIO
TITLE “Ain’t Too Proud To Beg”
PERFORMER “The Rolling Stones”
INDEX 01 03:46:65
TRACK 03 AUDIO
TITLE “It’s Only Rock ‘N Roll (But I Like It)”
PERFORMER “The Rolling Stones”
INDEX 01 07:18:12
TRACK 04 AUDIO
TITLE “Till The Next Goodbye”
PERFORMER “The Rolling Stones”
INDEX 01 12:25:25
TRACK 05 AUDIO
TITLE “Time Waits For No One”
PERFORMER “The Rolling Stones”
INDEX 01 17:02:10
TRACK 06 AUDIO
TITLE “Luxury”
PERFORMER “The Rolling Stones”
INDEX 01 23:40:25
TRACK 07 AUDIO
TITLE “Dance Little Sister”
PERFORMER “The Rolling Stones”
INDEX 01 28:41:35
TRACK 08 AUDIO
TITLE “If You Really Want To Be My Friend”
PERFORMER “The Rolling Stones”
INDEX 01 32:52:45
TRACK 09 AUDIO
TITLE “Short And Curlies”
PERFORMER “The Rolling Stones”
INDEX 01 39:09:32
TRACK 10 AUDIO
TITLE “Fingerprint File”
PERFORMER “The Rolling Stones”
INDEX 01 41:53:07


0

Publication author

offline 4 days

Chaos

3
Comments: 4Publics: 3565Registration: 02-02-2019
Spread the Download

Leave a Reply

Your email address will not be published. Required fields are marked *

Enter the text from the image below
 

This site uses Akismet to reduce spam. Learn how your comment data is processed.