The Rolling Stones – It’s Only Rock ‘N Roll (Limited Remastered Japanese Edition)




No Cover available

Artist: The Rolling Stones
Year: 1974/2013
Genre: Rock
Notes: Discogs
Add. Notes: Limited Remastered Japanese Edition
Watch Songs on: YouTube
Cover incl.: Yes
Encoder: FLAC
Bitrate: ~800 kBit/s (44.1 kHz/16 Bit/s)
Log & Cue incl.: Yes/Yes
Size: 332,1 MB
Password: “slam” (without ” “)


All Downloads/Hosters are compatible

Download 1
KatFile.com
Turbobit.net
Rapidgator.net
FileFactory.com
Download 2
KatFile.com
Turbobit.net
Rapidgator.net
FileFactory.com

Tracklist:

1 If You Can't Rock Me 3:47
2 Ain't Too Proud To Beg 3:32
3 It's Only Rock 'N Roll (But I Like It) 5:08
4 Till The Next Goodbye 4:39
5 Time Waits For No One 6:31
6 Luxury 4:30
7 Dance Little Sister 4:12
8 If You Really Want To Be My Friend 6:17
9 Short And Curlies 2:44
10 Fingerprint File 6:41

EAC-Log, CUE-Sheed & NFO:

Click to open spoiler
Exact Audio Copy V1.0 beta 3 from 29. August 2011

EAC extraction logfile from 1. May 2014, 20:20

The Rolling Stones / It’s Only Rock ‘N Roll PT-SHM

Used drive : PLEXTOR BD-R PX-B950SA Adapter: 6 ID: 0

Read mode : Secure
Utilize accurate stream : Yes
Defeat audio cache : Yes
Make use of C2 pointers : No

Read offset correction : 6
Overread into Lead-In and Lead-Out : No
Fill up missing offset samples with silence : Yes
Delete leading and trailing silent blocks : No
Null samples used in CRC calculations : Yes
Used interface : Native Win32 interface for Win NT & 2000

Used output format : Internal WAV Routines
Sample format : 44.100 Hz; 16 Bit; Stereo

TOC of the extracted CD

Track | Start | Length | Start sector | End sector
———————————————————
1 | 0:00.00 | 3:48.08 | 0 | 17107
2 | 3:48.08 | 3:31.45 | 17108 | 32977
3 | 7:19.53 | 5:05.60 | 32978 | 55912
4 | 12:25.38 | 4:39.02 | 55913 | 76839
5 | 17:04.40 | 6:48.05 | 76840 | 107444
6 | 23:52.45 | 5:02.68 | 107445 | 130162
7 | 28:55.38 | 4:12.00 | 130163 | 149062
8 | 33:07.38 | 6:18.55 | 149063 | 177467
9 | 39:26.18 | 2:44.72 | 177468 | 189839
10 | 42:11.15 | 7:01.13 | 189840 | 221427

Range status and errors

Selected range

Filename C:\Users\Meijin\Desktop\Lossless Galaxy ALLexxess\The Rolling Stones\1974 It’s Only Rock ‘N Roll (Mini LP PT-SHM Universal Japan 2013)\The Rolling Stones – It’s Only Rock ‘N Roll PT-SHM.wav

Peak level 94.9 %
Extraction speed 7.1 X
Range quality 100.0 %
Test CRC 06BF3620
Copy CRC 06BF3620
Copy OK

No errors occurred

AccurateRip summary

Track 1 accurately ripped (confidence 3) [7C6FFA36] (AR v2)
Track 2 accurately ripped (confidence 3) [0D55EC7C] (AR v2)
Track 3 accurately ripped (confidence 3) [E4A49FA0] (AR v2)
Track 4 accurately ripped (confidence 3) [CE3052A7] (AR v2)
Track 5 accurately ripped (confidence 3) [AF95CB6C] (AR v2)
Track 6 accurately ripped (confidence 3) [835E095B] (AR v2)
Track 7 accurately ripped (confidence 3) [004EEB84] (AR v2)
Track 8 accurately ripped (confidence 3) [0C51FB1E] (AR v2)
Track 9 accurately ripped (confidence 3) [470BBB48] (AR v2)
Track 10 accurately ripped (confidence 3) [E0E585F1] (AR v2)

All tracks accurately ripped

End of status report

==== Log checksum 6BF9814891AAD274E488DBFB156D55084701FA93477FF9EC6AB13CEC01D60C20 ====

REM GENRE “Rock / Rock & Roll / Classic Rock”
REM DATE 1974
REM DISCID 840B880A
REM COMMENT “ExactAudioCopy v1.0b3”
PERFORMER “The Rolling Stones”
TITLE ” It’s Only Rock ‘N Roll PT-SHM”
FILE “The Rolling Stones – It’s Only Rock ‘N Roll PT-SHM.flac” WAVE
TRACK 01 AUDIO
TITLE “If You Can’t Rock Me”
PERFORMER “The Rolling Stones”
INDEX 01 00:00:00
TRACK 02 AUDIO
TITLE “Ain’t Too Proud To Beg”
PERFORMER “The Rolling Stones”
INDEX 01 03:48:08
TRACK 03 AUDIO
TITLE “It’s Only Rock ‘N Roll (But I Like It)”
PERFORMER “The Rolling Stones”
INDEX 01 07:19:53
TRACK 04 AUDIO
TITLE “Till The Next Goodbye”
PERFORMER “The Rolling Stones”
INDEX 01 12:25:38
TRACK 05 AUDIO
TITLE “Time Waits For No One”
PERFORMER “The Rolling Stones”
INDEX 01 17:04:40
TRACK 06 AUDIO
TITLE “Luxury”
PERFORMER “The Rolling Stones”
INDEX 00 23:52:24
INDEX 01 23:52:45
TRACK 07 AUDIO
TITLE “Dance Little Sister”
PERFORMER “The Rolling Stones”
INDEX 01 28:55:38
TRACK 08 AUDIO
TITLE “If You Really Want To Be My Friend”
PERFORMER “The Rolling Stones”
INDEX 01 33:07:38
TRACK 09 AUDIO
TITLE “Short And Curlies”
PERFORMER “The Rolling Stones”
INDEX 01 39:26:18
TRACK 10 AUDIO
TITLE “Fingerprint File”
PERFORMER “The Rolling Stones”
INDEX 01 42:11:15


Leave a Reply

Your email address will not be published. Required fields are marked *

This site uses Akismet to reduce spam. Learn how your comment data is processed.