The Rolling Stones – Hotstuff




Artist: The Rolling Stones
Year: 2011
Genre: Rock
Notes: Discogs
Add. Notes:
Cover incl.: Yes
Encoder: FLAC
Bitrate: ~900 kBit/s (44.1 kHz/16 Bit/s)
Log & Cue incl.: Yes
Size: 513 MB
Password: “slam” (without ” “)


All Downloads/Hosters are compatible

Download 1
KatFile.com
Rapidgator.net
FileFactory.com
Turbobit.net
Download 2
KatFile.com
Rapidgator.net
FileFactory.com
Turbobit.net

Tracklist:

1. Start Me Up (3:34)
2. Harlem Shuffle (3:24)
3. Miss You (4:49)
4. Beast Of Burden (4:25)
5. Doo Doo Doo Doo (Heartbreaker) 
(3:27)
6. Happy (3:04)
7. Angie (4:32)
8. You Got Me Rocking (3:35)
9. Shattered (3:47)
10. Fool To Cry (5:05)
11. Mixed Emotions (4:39)
12. Tumbling Dice (3:46)
13. Undercover (Of The Night) 
(4:33)
14. Emotional Rescue (5:40)
15. It's Only Rock'n Roll (But I Like It) 
(5:08)
16. Wild Horses (5:43)
17. Hot Stuff (5:24)

Total - 74:35

EAC-Log, CUE-Sheed & NFO:

Click to open spoiler
Exact Audio Copy V1.0 beta 3 from 29. August 2011

EAC extraction logfile from 3. July 2015, 14:05

The Rolling Stones / hotstuff

Used drive : HL-DT-STDVD+-RW GH50N Adapter: 0 ID: 1

Read mode : Secure
Utilize accurate stream : Yes
Defeat audio cache : Yes
Make use of C2 pointers : No

Read offset correction : 667
Overread into Lead-In and Lead-Out : No
Fill up missing offset samples with silence : Yes
Delete leading and trailing silent blocks : No
Null samples used in CRC calculations : Yes
Used interface : Native Win32 interface for Win NT & 2000

Used output format : User Defined Encoder
Selected bitrate : 768 kBit/s
Quality : High
Add ID3 tag : No
Command line compressor : C:\Program Files (x86)\Exact Audio Copy\FLAC\FLAC.EXE
Additional command line options : -V -8 -T “Date=%year%” -T “Genre=%genre%” %source%

TOC of the extracted CD

Track | Start | Length | Start sector | End sector
———————————————————
1 | 0:00.13 | 3:35.02 | 13 | 16139
2 | 3:35.15 | 3:25.16 | 16140 | 31530
3 | 7:00.31 | 4:51.19 | 31531 | 53374
4 | 11:51.50 | 4:26.56 | 53375 | 73380
5 | 16:18.31 | 3:27.73 | 73381 | 88978
6 | 19:46.29 | 3:06.03 | 88979 | 102931
7 | 22:52.32 | 4:32.65 | 102932 | 123396
8 | 27:25.22 | 3:36.04 | 123397 | 139600
9 | 31:01.26 | 3:48.71 | 139601 | 156771
10 | 34:50.22 | 5:06.35 | 156772 | 179756
11 | 39:56.57 | 4:39.70 | 179757 | 200751
12 | 44:36.52 | 3:47.42 | 200752 | 217818
13 | 48:24.19 | 4:34.12 | 217819 | 238380
14 | 52:58.31 | 5:41.04 | 238381 | 263959
15 | 58:39.35 | 5:10.07 | 263960 | 287216
16 | 63:49.42 | 5:44.09 | 287217 | 313025
17 | 69:33.51 | 5:23.25 | 313026 | 337275

Range status and errors

Selected range

Filename C:\222\RUTRA1\2011 – hotstuff\The Rolling Stones – hotstuff.wav

Peak level 99.8 %
Extraction speed 3.3 X
Range quality 100.0 %
Test CRC A141308B
Copy CRC A141308B
Copy OK

No errors occurred

AccurateRip summary

Track 1 accurately ripped (confidence 1) [E699E9D9] (AR v2)
Track 2 accurately ripped (confidence 1) [A9720DA0] (AR v2)
Track 3 accurately ripped (confidence 1) [2E328F65] (AR v2)
Track 4 accurately ripped (confidence 1) [2E4A0BAD] (AR v2)
Track 5 accurately ripped (confidence 1) [86B25C7E] (AR v2)
Track 6 accurately ripped (confidence 1) [5B355F33] (AR v2)
Track 7 accurately ripped (confidence 1) [EDAD6667] (AR v2)
Track 8 accurately ripped (confidence 1) [CA7F45E9] (AR v2)
Track 9 accurately ripped (confidence 1) [5F34D205] (AR v2)
Track 10 accurately ripped (confidence 1) [090DC738] (AR v2)
Track 11 accurately ripped (confidence 1) [0BD319DB] (AR v2)
Track 12 accurately ripped (confidence 1) [14B537E0] (AR v2)
Track 13 accurately ripped (confidence 1) [4B978002] (AR v2)
Track 14 accurately ripped (confidence 1) [27AD3670] (AR v2)
Track 15 accurately ripped (confidence 1) [3221970C] (AR v2)
Track 16 accurately ripped (confidence 1) [A3210FA7] (AR v2)
Track 17 accurately ripped (confidence 1) [F298731B] (AR v2)

All tracks accurately ripped

End of status report

==== Log checksum 0B99AA3BD09C1976DC916BE36BCE7DC5E7D4CC8AF98F64B7D191BD6464FF30CB ====

REM GENRE rock
REM DATE 2011
REM DISCID F7119111
REM COMMENT “ExactAudioCopy v1.0b3”
PERFORMER “The Rolling Stones”
TITLE “hotstuff”
FILE “The Rolling Stones – hotstuff.flac” WAVE
TRACK 01 AUDIO
TITLE “start me up”
PERFORMER “The Rolling Stones”
INDEX 00 00:00:00
INDEX 01 00:00:13
TRACK 02 AUDIO
TITLE “harlem shuffle”
PERFORMER “The Rolling Stones”
INDEX 00 03:34:04
INDEX 01 03:35:15
TRACK 03 AUDIO
TITLE “miss you”
PERFORMER “The Rolling Stones”
INDEX 00 06:59:20
INDEX 01 07:00:31
TRACK 04 AUDIO
TITLE “beast of burden”
PERFORMER “The Rolling Stones”
INDEX 00 11:49:73
INDEX 01 11:51:50
TRACK 05 AUDIO
TITLE “doo doo doo doo (heartbreaker)”
PERFORMER “The Rolling Stones”
INDEX 00 16:16:44
INDEX 01 16:18:31
TRACK 06 AUDIO
TITLE “happy”
PERFORMER “The Rolling Stones”
INDEX 00 19:45:16
INDEX 01 19:46:29
TRACK 07 AUDIO
TITLE “angie”
PERFORMER “The Rolling Stones”
INDEX 00 22:50:74
INDEX 01 22:52:32
TRACK 08 AUDIO
TITLE “you got me rocking”
PERFORMER “The Rolling Stones”
INDEX 00 27:24:37
INDEX 01 27:25:22
TRACK 09 AUDIO
TITLE “shattered”
PERFORMER “The Rolling Stones”
INDEX 00 31:00:05
INDEX 01 31:01:26
TRACK 10 AUDIO
TITLE “fool to cry”
PERFORMER “The Rolling Stones”
INDEX 00 34:48:01
INDEX 01 34:50:22
TRACK 11 AUDIO
TITLE “mixed emotions”
PERFORMER “The Rolling Stones”
INDEX 00 39:55:22
INDEX 01 39:56:57
TRACK 12 AUDIO
TITLE “tumbling dice”
PERFORMER “The Rolling Stones”
INDEX 00 44:35:16
INDEX 01 44:36:52
TRACK 13 AUDIO
TITLE “undercover (of the night)”
PERFORMER “The Rolling Stones”
INDEX 00 48:22:42
INDEX 01 48:24:19
TRACK 14 AUDIO
TITLE “emotional rescue”
PERFORMER “The Rolling Stones”
INDEX 00 52:57:32
INDEX 01 52:58:31
TRACK 15 AUDIO
TITLE “it’s only rock’n roll (but i like it)”
PERFORMER “The Rolling Stones”
INDEX 00 58:38:06
INDEX 01 58:39:35
TRACK 16 AUDIO
TITLE “wild horses”
PERFORMER “The Rolling Stones”
INDEX 00 63:47:32
INDEX 01 63:49:42
TRACK 17 AUDIO
TITLE “hot stuff”
PERFORMER “The Rolling Stones”
INDEX 00 69:32:19
INDEX 01 69:33:51


Leave a Reply

Your email address will not be published. Required fields are marked *

Enter the text from the image below
 

This site uses Akismet to reduce spam. Learn how your comment data is processed.