The Rolling Stones – Hot Six (Japanese Edition)




[Total: 0    Average: 0/5]

Artist: The Rolling Stones
Year: 2006
Genre: Rock
Notes: Discogs
Add. Notes: Japanese Edition
Cover incl.: Yes
Encoder: FLAC
Bitrate: ~900 kBit/s (44.1 kHz/16 Bit/s)
Log & Cue incl.: Yes
Size: 151,38 MB
Password: “slam” (without ” “)


All Downloads/Hosters are compatible

Download 1
Share-online.biz
KatFile.com
Rapidgator.net
Download 2
Share-online.biz
KatFile.com
Rapidgator.net

Tracklist:

1. Jumping Jack Flash (3:49)
2. Brown Sugar (3:50)
3. She's A Rainbow (4:13)
4. It's All Over Now (3:27)
5. Honky Tonk Women (3:00)
6. Salt Of The Earth (4:47)

EAC-Log, CUE-Sheed & NFO:

Click to open spoiler
Exact Audio Copy V1.1 from 23. June 2015

EAC extraction logfile from 21. October 2016, 12:21

The Rolling Stones / Hot Six

Used drive : HL-DT-STDVD+-RW GH50N Adapter: 1 ID: 0

Read mode : Secure
Utilize accurate stream : Yes
Defeat audio cache : Yes
Make use of C2 pointers : No

Read offset correction : 667
Overread into Lead-In and Lead-Out : No
Fill up missing offset samples with silence : Yes
Delete leading and trailing silent blocks : No
Null samples used in CRC calculations : Yes
Used interface : Native Win32 interface for Win NT & 2000

Used output format : User Defined Encoder
Selected bitrate : 768 kBit/s
Quality : High
Add ID3 tag : No
Command line compressor : C:\Program Files (x86)\Exact Audio Copy\FLAC\FLAC.EXE
Additional command line options : -V -8 -T “Date=%year%” -T “Genre=%genre%” %source%

TOC of the extracted CD

Track | Start | Length | Start sector | End sector
———————————————————
1 | 0:00.00 | 3:49.16 | 0 | 17190
2 | 3:49.16 | 3:50.60 | 17191 | 34500
3 | 7:40.01 | 4:13.12 | 34501 | 53487
4 | 11:53.13 | 3:27.53 | 53488 | 69065
5 | 15:20.66 | 3:00.68 | 69066 | 82633
6 | 18:21.59 | 4:47.45 | 82634 | 104203

Range status and errors

Selected range

Filename C:\222\SACD\2006 – Hot Six\The Rolling Stones – Hot Six.wav

Peak level 100.0 %
Extraction speed 2.6 X
Range quality 100.0 %
Test CRC 8D3CA9D4
Copy CRC 8D3CA9D4
Copy OK

No errors occurred

AccurateRip summary

Track 1 not present in database
Track 2 not present in database
Track 3 not present in database
Track 4 not present in database
Track 5 not present in database
Track 6 not present in database

None of the tracks are present in the AccurateRip database

End of status report

—- CUETools DB Plugin V2.1.6

[CTDB TOCID: g8qy1wZfHacmdDq.Cu9KgDNRUpE-] disk not present in database
Submit result: g8qy1wZfHacmdDq.Cu9KgDNRUpE- has been uploaded

==== Log checksum E7F41B1690C44D6C1CCE46622A6729E233734722C564D0EDCED1858B65C93998 ====

REM GENRE “Classic Rock”
REM DATE 2006
REM DISCID 33056D06
REM COMMENT “ExactAudioCopy v1.1”
PERFORMER “The Rolling Stones”
TITLE “Hot Six”
FILE “The Rolling Stones – Hot Six.flac” WAVE
TRACK 01 AUDIO
TITLE “Jumping Jack Flash (live)”
PERFORMER “The Rolling Stones”
INDEX 01 00:00:00
INDEX 02 00:27:42
TRACK 02 AUDIO
TITLE “Brown Sugar”
PERFORMER “The Rolling Stones”
INDEX 00 03:47:32
INDEX 01 03:49:16
TRACK 03 AUDIO
TITLE “She’s A Rainbow”
PERFORMER “The Rolling Stones”
INDEX 00 07:38:40
INDEX 01 07:40:01
TRACK 04 AUDIO
TITLE “It’s All Over Now”
PERFORMER “The Rolling Stones”
INDEX 00 11:51:18
INDEX 01 11:53:13
TRACK 05 AUDIO
TITLE “Honky Tonk Women”
PERFORMER “The Rolling Stones”
INDEX 00 15:19:46
INDEX 01 15:20:66
TRACK 06 AUDIO
TITLE “Salt Of The Earth”
PERFORMER “The Rolling Stones”
INDEX 00 18:20:35
INDEX 01 18:21:59


Spread the Download

Leave a Reply

Your email address will not be published. Required fields are marked *

Enter the text from the image below
 

This site uses Akismet to reduce spam. Learn how your comment data is processed.