The Rolling Stones – Hot Rocks 2 (Japanese Edition)




No Cover available

Artist: The Rolling Stones
Year: 1985/1989
Genre: Rock
Notes: Discogs
Add. Notes: Japanese Edition
Watch Songs on: YouTube
Cover incl.: Yes
Encoder: FLAC
Bitrate: ~800 kBit/s (44.1 kHz/16 Bit/s)
Log & Cue incl.: Yes/Yes
Size: 277,7 MB
Password: “slam” (without ” “)


All Downloads/Hosters are compatible

Download 1
KatFile.com
Turbobit.net
Rapidgator.net
FileFactory.com
Download 2
KatFile.com
Turbobit.net
Rapidgator.net
FileFactory.com

Tracklist:

1 Jumpin' Jack Flash 3:40
2 Street Fighting Man 3:10
3 Sympathy For The Devil 6:14
4 Honky Tonk Woman 3:03
5 Gimme Shelter 4:30
6 Midnight Rambler 8:23
7 You Can't Always Get What You Want 7:28
8 Brown Sugar 3:50
9 Wild Horses 5:41

EAC-Log, CUE-Sheed & NFO:

Click to open spoiler
Exact Audio Copy V1.1 from 23. June 2015

EAC extraction logfile from 6. October 2016, 16:50

The Rolling Stones / Hot Rocks 2 [P25L 25048]

Used drive : HL-DT-STDVD+-RW GH50N Adapter: 1 ID: 0

Read mode : Secure
Utilize accurate stream : Yes
Defeat audio cache : Yes
Make use of C2 pointers : No

Read offset correction : 667
Overread into Lead-In and Lead-Out : No
Fill up missing offset samples with silence : Yes
Delete leading and trailing silent blocks : No
Null samples used in CRC calculations : Yes
Used interface : Native Win32 interface for Win NT & 2000

Used output format : User Defined Encoder
Selected bitrate : 768 kBit/s
Quality : High
Add ID3 tag : No
Command line compressor : C:\Program Files (x86)\Exact Audio Copy\FLAC\FLAC.EXE
Additional command line options : -V -8 -T “Date=%year%” -T “Genre=%genre%” %source%

TOC of the extracted CD

Track | Start | Length | Start sector | End sector
———————————————————
1 | 0:00.37 | 3:44.33 | 37 | 16869
2 | 3:44.70 | 3:20.12 | 16870 | 31881
3 | 7:05.07 | 6:27.38 | 31882 | 60944
4 | 13:32.45 | 3:06.72 | 60945 | 74966
5 | 16:39.42 | 4:35.35 | 74967 | 95626
6 | 21:15.02 | 9:15.10 | 95627 | 137261
7 | 30:30.12 | 7:34.35 | 137262 | 171346
8 | 38:04.47 | 3:52.13 | 171347 | 188759
9 | 41:56.60 | 5:42.52 | 188760 | 214461

Range status and errors

Selected range

Filename C:\222\London\Japan\1971 – Hot Rocks 2 [P25L 25048]\The Rolling Stones – Hot Rocks 2 [P25L 25048].wav

Peak level 96.9 %
Extraction speed 3.0 X
Range quality 100.0 %
Test CRC E8483F03
Copy CRC E8483F03
Copy OK

No errors occurred

AccurateRip summary

Track 1 cannot be verified as accurate (confidence 7) [99FE79BA], AccurateRip returned [56F02FCE] (AR v2)
Track 2 cannot be verified as accurate (confidence 7) [3D635F71], AccurateRip returned [3F4AC97E] (AR v2)
Track 3 cannot be verified as accurate (confidence 7) [2E2FE341], AccurateRip returned [B67DA2FE] (AR v2)
Track 4 cannot be verified as accurate (confidence 7) [64DFA1F6], AccurateRip returned [125C49D6] (AR v2)
Track 5 cannot be verified as accurate (confidence 7) [BF6DDA7F], AccurateRip returned [3A96E9AC] (AR v2)
Track 6 cannot be verified as accurate (confidence 7) [DE91EE8F], AccurateRip returned [56088754] (AR v2)
Track 7 cannot be verified as accurate (confidence 7) [22086D82], AccurateRip returned [FE783A05] (AR v2)
Track 8 cannot be verified as accurate (confidence 7) [4716F62B], AccurateRip returned [C4029D9E] (AR v2)
Track 9 cannot be verified as accurate (confidence 7) [AAC982F4], AccurateRip returned [C393F8FD] (AR v2)

No tracks could be verified as accurate
You may have a different pressing from the one(s) in the database

End of status report

—- CUETools DB Plugin V2.1.6

[CTDB TOCID: eld45TSMXj2T9.cb3iL8rumVwLA-] found
Submit result: eld45TSMXj2T9.cb3iL8rumVwLA- has been confirmed
Track | CTDB Status
1 | (12/12) Accurately ripped
2 | (12/12) Accurately ripped
3 | (12/12) Accurately ripped
4 | (12/12) Accurately ripped
5 | (12/12) Accurately ripped
6 | (12/12) Accurately ripped
7 | (12/12) Accurately ripped
8 | (12/12) Accurately ripped
9 | (12/12) Accurately ripped

==== Log checksum 07885846E92B74C215BD0C57CF3C230A98F6BA0EA4CD7EC416E3AABF42EF58BD ====

REM GENRE Rock
REM DATE 1971
REM DISCID 690B2B09
REM COMMENT “ExactAudioCopy v1.1”
PERFORMER “The Rolling Stones”
TITLE “Hot Rocks 2 [P25L 25048]”
FILE “The Rolling Stones – Hot Rocks 2 [P25L 25048].flac” WAVE
TRACK 01 AUDIO
TITLE “Jumpin’ Jack Flash”
PERFORMER “The Rolling Stones”
INDEX 00 00:00:00
INDEX 01 00:00:37
TRACK 02 AUDIO
TITLE “Street Fighting Man”
PERFORMER “The Rolling Stones”
INDEX 00 03:42:23
INDEX 01 03:44:70
TRACK 03 AUDIO
TITLE “Sympathy For The Devil”
PERFORMER “The Rolling Stones”
INDEX 00 07:02:45
INDEX 01 07:05:07
TRACK 04 AUDIO
TITLE “Honky Tonk Women”
PERFORMER “The Rolling Stones”
INDEX 00 13:30:05
INDEX 01 13:32:45
TRACK 05 AUDIO
TITLE “Gimme Shelter”
PERFORMER “The Rolling Stones”
INDEX 00 16:35:63
INDEX 01 16:39:42
TRACK 06 AUDIO
TITLE “Midnight Rambler”
PERFORMER “The Rolling Stones”
INDEX 00 21:12:20
INDEX 01 21:15:02
TRACK 07 AUDIO
TITLE “You Can’t Always Get What You Want”
PERFORMER “The Rolling Stones”
INDEX 00 30:27:63
INDEX 01 30:30:12
TRACK 08 AUDIO
TITLE “Brown Sugar”
PERFORMER “The Rolling Stones”
INDEX 00 38:00:23
INDEX 01 38:04:47
TRACK 09 AUDIO
TITLE “Wild Horses”
PERFORMER “The Rolling Stones”
INDEX 00 41:53:38
INDEX 01 41:56:60


Leave a Reply

Your email address will not be published. Required fields are marked *

This site uses Akismet to reduce spam. Learn how your comment data is processed.