The Rolling Stones – Hot Rocks 1964 – 1971 (Remastered)




No Cover available

Artist: The Rolling Stones
Year: 1971/2002
Genre: Rock
Notes: Discogs
Add. Notes: Remastered
Watch Songs on: YouTube
Cover incl.: Yes
Encoder: FLAC
Bitrate: ~800 kBit/s (44.1 kHz/16 Bit/s)
Log & Cue incl.: Yes/Yes
Size: 575 MB
Password: “slam” (without ” “)


All Downloads/Hosters are compatible

Download 1
KatFile.com
Turbobit.net
Rapidgator.net
FileFactory.com
Download 2
KatFile.com
Turbobit.net
Rapidgator.net
FileFactory.com

Tracklist:

Cd1
1. Time Is On My Side (3:00)
2. Heart Of Stone (2:49)
3. Play With Fire (2:14)
4. Satisfaction (3:43)
5. As Tears Go By (2:45)
6. Get Off Of My Cloud (2:55)
7. Mother's Little Helper (2:47)
8. 19th Nervous Breakdown (3:57)
9. Paint It Black (3:22)
10. Under My Thumb (3:43)
11. Ruby Tuesday (3:17)
12. Let's Spend The Night Together (3:36)

Cd2
1. Jumpin' Jack Flash (3:42)
2. Street Fighting Man (3:15)
3. Sympathy For The Devil (6:18)
4. Honky Tonk Women (3:00)
5. Gimme Shelter (4:30)
6. Midnight Rambler (9:15)
7. You Can't Always Get What You Want (7:29)
8. Brown Sugar (3:49)
9. Wild Horses (5:43)

EAC-Log, CUE-Sheed & NFO:

Click to open spoiler
Exact Audio Copy V1.0 beta 3 from 29. August 2011

EAC extraction logfile from 2. August 2012, 22:12

The Rolling Stones / Hot Rocks 1964 – 1971 (Disc 2) (882 334-2)

Used drive : PIONEER DVD-RW DVR-219L Adapter: 2 ID: 0

Read mode : Secure
Utilize accurate stream : Yes
Defeat audio cache : Yes
Make use of C2 pointers : No

Read offset correction : 6
Overread into Lead-In and Lead-Out : No
Fill up missing offset samples with silence : Yes
Delete leading and trailing silent blocks : No
Null samples used in CRC calculations : Yes
Used interface : Native Win32 interface for Win NT & 2000

Used output format : User Defined Encoder
Selected bitrate : 1024 kBit/s
Quality : High
Add ID3 tag : No
Command line compressor : C:\Program Files\Exact Audio Copy\Flac\flac.exe
Additional command line options : -V -8 -T “Genre=%genre%” -T “Artist=%artist%” -T “Title=%title%” -T “Album=%albumtitle%” -T “Date=%year%” -T “Tracknumber=%tracknr%” -T “Comment=%comment%” %source%

TOC of the extracted CD

Track | Start | Length | Start sector | End sector
———————————————————
1 | 0:00.00 | 3:43.55 | 0 | 16779
2 | 3:43.55 | 3:15.67 | 16780 | 31471
3 | 6:59.47 | 6:19.05 | 31472 | 59901
4 | 13:18.52 | 3:02.30 | 59902 | 73581
5 | 16:21.07 | 4:32.35 | 73582 | 94016
6 | 20:53.42 | 9:15.73 | 94017 | 135714
7 | 30:09.40 | 7:29.05 | 135715 | 169394
8 | 37:38.45 | 3:50.00 | 169395 | 186644
9 | 41:28.45 | 5:42.47 | 186645 | 212341

Range status and errors

Selected range

Filename H:\dafnaplus\Hot Rocks\Cd2\The Rolling Stones – Hot Rocks 1964 – 1971 (Disc 2) (882 334-2).wav

Peak level 99.8 %
Extraction speed 1.6 X
Range quality 100.0 %
Test CRC B75A79A8
Copy CRC B75A79A8
Copy OK

No errors occurred

AccurateRip summary

Track 1 accurately ripped (confidence 6) [493A6E8E] (AR v2)
Track 2 accurately ripped (confidence 6) [7CA1D2DB] (AR v2)
Track 3 accurately ripped (confidence 6) [DF65A388] (AR v2)
Track 4 accurately ripped (confidence 6) [5DEBFDB1] (AR v2)
Track 5 accurately ripped (confidence 6) [B8E87B9A] (AR v2)
Track 6 accurately ripped (confidence 6) [5728CA1C] (AR v2)
Track 7 accurately ripped (confidence 6) [31A31EFA] (AR v2)
Track 8 accurately ripped (confidence 6) [3F25CDD9] (AR v2)
Track 9 accurately ripped (confidence 6) [60173837] (AR v2)

All tracks accurately ripped

End of status report

==== Log checksum 28C3E00489D022B77C53361A0CAB963E7ADDBEA4E29AC526258655E1D8330482 ====

Exact Audio Copy V1.0 beta 3 from 29. August 2011

EAC extraction logfile from 2. August 2012, 21:03

The Rolling Stones / Hot Rocks 1964 – 1971 (Disc 1) (882 334-2)

Used drive : PIONEER DVD-RW DVR-219L Adapter: 2 ID: 0

Read mode : Secure
Utilize accurate stream : Yes
Defeat audio cache : Yes
Make use of C2 pointers : No

Read offset correction : 6
Overread into Lead-In and Lead-Out : No
Fill up missing offset samples with silence : Yes
Delete leading and trailing silent blocks : No
Null samples used in CRC calculations : Yes
Used interface : Native Win32 interface for Win NT & 2000

Used output format : User Defined Encoder
Selected bitrate : 1024 kBit/s
Quality : High
Add ID3 tag : No
Command line compressor : C:\Program Files\Exact Audio Copy\Flac\flac.exe
Additional command line options : -V -8 -T “Genre=%genre%” -T “Artist=%artist%” -T “Title=%title%” -T “Album=%albumtitle%” -T “Date=%year%” -T “Tracknumber=%tracknr%” -T “Comment=%comment%” %source%

TOC of the extracted CD

Track | Start | Length | Start sector | End sector
———————————————————
1 | 0:00.00 | 3:00.52 | 0 | 13551
2 | 3:00.52 | 2:51.05 | 13552 | 26381
3 | 5:51.57 | 2:16.00 | 26382 | 36581
4 | 8:07.57 | 3:44.53 | 36582 | 53434
5 | 11:52.35 | 2:46.72 | 53435 | 65956
6 | 14:39.32 | 2:56.18 | 65957 | 79174
7 | 17:35.50 | 2:48.02 | 79175 | 91776
8 | 20:23.52 | 3:58.65 | 91777 | 109691
9 | 24:22.42 | 3:24.60 | 109692 | 125051
10 | 27:47.27 | 3:44.00 | 125052 | 141851
11 | 31:31.27 | 3:18.18 | 141852 | 156719
12 | 34:49.45 | 3:35.60 | 156720 | 172904

Range status and errors

Selected range

Filename H:\dafnaplus\Hot Rocks\Cd1\The Rolling Stones – Hot Rocks 1964 – 1971 (Disc 1) (882 334-2).wav

Peak level 100.0 %
Extraction speed 1.5 X
Range quality 99.9 %
Test CRC 19E40F16
Copy CRC 19E40F16
Copy OK

No errors occurred

AccurateRip summary

Track 1 accurately ripped (confidence 8) [DC4AB9D1] (AR v2)
Track 2 accurately ripped (confidence 8) [3F37C63D] (AR v2)
Track 3 accurately ripped (confidence 8) [01691245] (AR v2)
Track 4 accurately ripped (confidence 8) [4F1CF6DB] (AR v2)
Track 5 accurately ripped (confidence 8) [8947646A] (AR v2)
Track 6 accurately ripped (confidence 8) [1E9F7644] (AR v2)
Track 7 accurately ripped (confidence 8) [82390E19] (AR v2)
Track 8 accurately ripped (confidence 8) [9667EABA] (AR v2)
Track 9 accurately ripped (confidence 8) [8E7A115C] (AR v2)
Track 10 accurately ripped (confidence 8) [85EB6C5A] (AR v2)
Track 11 accurately ripped (confidence 8) [56E24576] (AR v2)
Track 12 accurately ripped (confidence 8) [144D61E1] (AR v2)

All tracks accurately ripped

End of status report

==== Log checksum B4BC5F4CE90B0B288F99DA0B7AD2E5362772831B98A9DBF26BAFEEFC90C11621 ====

REM GENRE Rock
REM DATE 1971
REM DISCID A709010C
REM COMMENT “ExactAudioCopy v1.0b3”
PERFORMER “The Rolling Stones”
TITLE “Hot Rocks 1964 – 1971 (Disc 1) (882 334-2)”
FILE “The Rolling Stones – Hot Rocks 1964 – 1971 (Disc 1) (882 334-2).flac” WAVE
TRACK 01 AUDIO
TITLE “Time Is On My Side”
PERFORMER “The Rolling Stones”
ISRC USA176410330
INDEX 01 00:00:00
TRACK 02 AUDIO
TITLE “Heart Of Stone”
PERFORMER “The Rolling Stones”
ISRC USA176510040
INDEX 00 03:00:12
INDEX 01 03:00:52
TRACK 03 AUDIO
TITLE “Play With Fire”
PERFORMER “The Rolling Stones”
ISRC USA176510190
INDEX 00 05:49:62
INDEX 01 05:51:57
TRACK 04 AUDIO
TITLE “(I Can’t Get No) Satisfaction”
PERFORMER “The Rolling Stones”
ISRC USA176510160
INDEX 00 08:05:07
INDEX 01 08:07:57
TRACK 05 AUDIO
TITLE “As Tears Go By”
PERFORMER “The Rolling Stones”
ISRC USA176510290
INDEX 00 11:50:42
INDEX 01 11:52:35
TRACK 06 AUDIO
TITLE “Get Off Of My Cloud”
PERFORMER “The Rolling Stones”
ISRC USA176510270
INDEX 00 14:37:55
INDEX 01 14:39:32
TRACK 07 AUDIO
TITLE “Mother’s Little Helper”
PERFORMER “The Rolling Stones”
ISRC USA176610270
INDEX 00 17:34:55
INDEX 01 17:35:50
TRACK 08 AUDIO
TITLE “19th Nervous Breakdown”
PERFORMER “The Rolling Stones”
ISRC USA176610010
INDEX 00 20:22:37
INDEX 01 20:23:52
TRACK 09 AUDIO
TITLE “Paint It, Black”
PERFORMER “The Rolling Stones”
ISRC USA176610020
INDEX 00 24:20:10
INDEX 01 24:22:42
TRACK 10 AUDIO
TITLE “Under My Thumb”
PERFORMER “The Rolling Stones”
ISRC USA176610050
INDEX 00 27:44:52
INDEX 01 27:47:27
TRACK 11 AUDIO
TITLE “Ruby Tuesday”
PERFORMER “The Rolling Stones”
ISRC USA176710030
INDEX 00 31:30:10
INDEX 01 31:31:27
TRACK 12 AUDIO
TITLE “Let’s Spend The Night Together”
PERFORMER “The Rolling Stones”
ISRC USA176710010
INDEX 00 34:48:12
INDEX 01 34:49:45

REM GENRE Rock
REM DATE 2002
REM DISCID 5F0B0F09
REM COMMENT “ExactAudioCopy v1.0b3”
PERFORMER “The Rolling Stones”
TITLE “Hot Rocks 1964 – 1971 (Disc 2) (882 334-2)”
FILE “The Rolling Stones – Hot Rocks 1964 – 1971 (Disc 2) (882 334-2).flac” WAVE
TRACK 01 AUDIO
TITLE “Jumpin’ Jack Flash”
PERFORMER “The Rolling Stones”
ISRC USA176810110
INDEX 01 00:00:00
TRACK 02 AUDIO
TITLE “Street Fighting Man”
PERFORMER “The Rolling Stones”
ISRC USA176810060
INDEX 00 03:42:22
INDEX 01 03:43:55
TRACK 03 AUDIO
TITLE “Sympathy For The Devil”
PERFORMER “The Rolling Stones”
ISRC USA176810010
INDEX 00 06:58:72
INDEX 01 06:59:47
TRACK 04 AUDIO
TITLE “Honky Tonk Women”
PERFORMER “The Rolling Stones”
ISRC USA176910010
INDEX 00 13:17:15
INDEX 01 13:18:52
TRACK 05 AUDIO
TITLE “Gimme Shelter”
PERFORMER “The Rolling Stones”
ISRC USA176910020
INDEX 00 16:18:07
INDEX 01 16:21:07
TRACK 06 AUDIO
TITLE “Midnight Rambler (Live)”
PERFORMER “The Rolling Stones”
ISRC USA177010050
INDEX 00 20:51:72
INDEX 01 20:53:42
TRACK 07 AUDIO
TITLE “You Can’t Always Get What You Want”
PERFORMER “The Rolling Stones”
ISRC USA176910100
INDEX 00 30:08:37
INDEX 01 30:09:40
TRACK 08 AUDIO
TITLE “Brown Sugar”
PERFORMER “The Rolling Stones”
ISRC USA177110010
INDEX 00 37:38:40
INDEX 01 37:38:45
TRACK 09 AUDIO
TITLE “Wild Horses”
PERFORMER “The Rolling Stones”
ISRC USA177110020
INDEX 00 41:27:60
INDEX 01 41:28:45


Leave a Reply

Your email address will not be published. Required fields are marked *

Enter the text from the image below
 

This site uses Akismet to reduce spam. Learn how your comment data is processed.