The Rolling Stones – Hot Rocks 1 (Japanese Edition)




No Cover available

Artist: The Rolling Stones
Year: 1989
Genre: Rock
Notes: Discogs
Add. Notes: Japanese Edition
Watch Songs on: YouTube
Cover incl.: Yes
Encoder: FLAC
Bitrate: ~700 kBit/s (44.1 kHz/16 Bit/s)
Log & Cue incl.: Yes/Yes
Size: 224,83 MB
Password: “slam” (without ” “)


All Downloads/Hosters are compatible

Download 1
KatFile.com
Turbobit.net
Rapidgator.net
FileFactory.com
Download 2
KatFile.com
Turbobit.net
Rapidgator.net
FileFactory.com

Tracklist:

1 Time Is On My Side 3:03
2 Heart Of Stone 2:49
3 Play With Fire 2:14
4 (I Can't Get No) Satisfaction 3:46
5 As Tears Go By 2:46
6 Get Off Of My Cloud 3:00
7 Mother's Little Helper 2:48
8 19th Nervous Breakdown 4:00
9 Paint It Black 3:24
10 Under My Thumb 3:43
11 Ruby Tuesday 3:19
12 Let's Spend The Night Together 3:39

EAC-Log, CUE-Sheed & NFO:

Click to open spoiler
Exact Audio Copy V1.1 from 23. June 2015

EAC extraction logfile from 6. October 2016, 16:10

The Rolling Stones / Hot Rocks 1 [P25L 25047]

Used drive : HL-DT-STDVD+-RW GH50N Adapter: 1 ID: 0

Read mode : Secure
Utilize accurate stream : Yes
Defeat audio cache : Yes
Make use of C2 pointers : No

Read offset correction : 667
Overread into Lead-In and Lead-Out : No
Fill up missing offset samples with silence : Yes
Delete leading and trailing silent blocks : No
Null samples used in CRC calculations : Yes
Used interface : Native Win32 interface for Win NT & 2000

Used output format : User Defined Encoder
Selected bitrate : 768 kBit/s
Quality : High
Add ID3 tag : No
Command line compressor : C:\Program Files (x86)\Exact Audio Copy\FLAC\FLAC.EXE
Additional command line options : -V -8 -T “Date=%year%” -T “Genre=%genre%” %source%

TOC of the extracted CD

Track | Start | Length | Start sector | End sector
———————————————————
1 | 0:00.37 | 3:03.43 | 37 | 13804
2 | 3:04.05 | 2:49.47 | 13805 | 26526
3 | 5:53.52 | 2:14.38 | 26527 | 36614
4 | 8:08.15 | 3:46.30 | 36615 | 53594
5 | 11:54.45 | 2:46.65 | 53595 | 66109
6 | 14:41.35 | 3:00.67 | 66110 | 79676
7 | 17:42.27 | 2:48.60 | 79677 | 92336
8 | 20:31.12 | 4:00.15 | 92337 | 110351
9 | 24:31.27 | 3:24.38 | 110352 | 125689
10 | 27:55.65 | 3:43.60 | 125690 | 142474
11 | 31:39.50 | 3:19.50 | 142475 | 157449
12 | 34:59.25 | 3:39.47 | 157450 | 173921

Range status and errors

Selected range

Filename C:\222\London\Japan\1971 – Hot Rocks 1 [P25L 25047]\The Rolling Stones – Hot Rocks 1 [P25L 25047].wav

Peak level 91.9 %
Extraction speed 2.8 X
Range quality 100.0 %
Test CRC ABBBECF6
Copy CRC ABBBECF6
Copy OK

No errors occurred

AccurateRip summary

Track 1 cannot be verified as accurate (confidence 12) [033C4AAD], AccurateRip returned [032D61ED] (AR v2)
Track 2 cannot be verified as accurate (confidence 12) [13027EAE], AccurateRip returned [DF5FF078] (AR v2)
Track 3 cannot be verified as accurate (confidence 12) [62EADE79], AccurateRip returned [1135B655] (AR v2)
Track 4 cannot be verified as accurate (confidence 12) [7EF61C27], AccurateRip returned [F1FF841F] (AR v2)
Track 5 cannot be verified as accurate (confidence 12) [042AEA1E], AccurateRip returned [CA8E0415] (AR v2)
Track 6 cannot be verified as accurate (confidence 12) [4C624F84], AccurateRip returned [EB673DA8] (AR v2)
Track 7 cannot be verified as accurate (confidence 12) [4D61D488], AccurateRip returned [C1CCE0D0] (AR v2)
Track 8 cannot be verified as accurate (confidence 12) [5B2A2B4E], AccurateRip returned [2FD26EEE] (AR v2)
Track 9 cannot be verified as accurate (confidence 12) [9FCE6F1B], AccurateRip returned [10BEC567] (AR v2)
Track 10 cannot be verified as accurate (confidence 12) [F2973146], AccurateRip returned [C22FF6E7] (AR v2)
Track 11 cannot be verified as accurate (confidence 12) [B258CF74], AccurateRip returned [F758896B] (AR v2)
Track 12 cannot be verified as accurate (confidence 12) [4D561BE0], AccurateRip returned [6E8C9DF6] (AR v2)

No tracks could be verified as accurate
You may have a different pressing from the one(s) in the database

End of status report

—- CUETools DB Plugin V2.1.6

[CTDB TOCID: j4LP0P.N1HQOefUcSdX2E4mhNRA-] found
Submit result: already submitted
Track | CTDB Status
1 | (18/18) Accurately ripped
2 | (18/18) Accurately ripped
3 | (18/18) Accurately ripped
4 | (18/18) Accurately ripped
5 | (18/18) Accurately ripped
6 | (17/18) Accurately ripped
7 | (18/18) Accurately ripped
8 | (18/18) Accurately ripped
9 | (18/18) Accurately ripped
10 | (18/18) Accurately ripped
11 | (18/18) Accurately ripped
12 | (16/18) Accurately ripped

==== Log checksum 9FE727CA51740B03BB228F83734879E9264929AE97848D1FA45DA2A7ACF97D05 ====

REM GENRE Rock
REM DATE 1971
REM DISCID 93090E0C
REM COMMENT “ExactAudioCopy v1.1”
PERFORMER “The Rolling Stones”
TITLE “Hot Rocks 1 [P25L 25047]”
FILE “The Rolling Stones – Hot Rocks 1 [P25L 25047].flac” WAVE
TRACK 01 AUDIO
TITLE “Time Is On My Side”
PERFORMER “The Rolling Stones”
INDEX 00 00:00:00
INDEX 01 00:00:37
TRACK 02 AUDIO
TITLE “Heart Of Stone”
PERFORMER “The Rolling Stones”
INDEX 00 03:00:38
INDEX 01 03:04:05
TRACK 03 AUDIO
TITLE “Play With Fire”
PERFORMER “The Rolling Stones”
INDEX 00 05:51:43
INDEX 01 05:53:52
TRACK 04 AUDIO
TITLE “(I Can’t Get No) Satisfaction”
PERFORMER “The Rolling Stones”
INDEX 00 08:05:23
INDEX 01 08:08:15
TRACK 05 AUDIO
TITLE “As Tears Go By”
PERFORMER “The Rolling Stones”
INDEX 00 11:51:66
INDEX 01 11:54:45
TRACK 06 AUDIO
TITLE “Get Off My Cloud”
PERFORMER “The Rolling Stones”
INDEX 00 14:38:46
INDEX 01 14:41:35
TRACK 07 AUDIO
TITLE “Mother’s Little Helper”
PERFORMER “The Rolling Stones”
INDEX 00 17:39:36
INDEX 01 17:42:27
TRACK 08 AUDIO
TITLE “19th Nervous Breakdown”
PERFORMER “The Rolling Stones”
INDEX 00 20:27:58
INDEX 01 20:31:12
TRACK 09 AUDIO
TITLE “Paint It Black”
PERFORMER “The Rolling Stones”
INDEX 00 24:29:01
INDEX 01 24:31:27
TRACK 10 AUDIO
TITLE “Under My Thumb”
PERFORMER “The Rolling Stones”
INDEX 00 27:53:61
INDEX 01 27:55:65
TRACK 11 AUDIO
TITLE “Ruby Tuesday”
PERFORMER “The Rolling Stones”
INDEX 00 31:37:16
INDEX 01 31:39:50
TRACK 12 AUDIO
TITLE “Let’s Spend The Night Together”
PERFORMER “The Rolling Stones”
INDEX 00 34:56:46
INDEX 01 34:59:25


Leave a Reply

Your email address will not be published. Required fields are marked *

This site uses Akismet to reduce spam. Learn how your comment data is processed.