The Rolling Stones – Hampton Coliseum (Live In 1981)




[Total: 0    Average: 0/5]

Artist: The Rolling Stones
Year: 2014
Genre: Rock
Notes: Discogs
Add. Notes:
Cover incl.: Yes
Encoder: FLAC
Bitrate: ~1000 kBit/s (44.1 kHz/16 Bit/s)
Log & Cue incl.: Yes
Size: 1018,06 MB
Password: “slam” (without ” “)


All Downloads/Hosters are compatible

Download 1
Share-online.biz
KatFile.com
Rapidgator.net
Download 2
Share-online.biz
KatFile.com
Rapidgator.net

Tracklist:

Disc 1:
1. Under My Thumb (5:04)
2. When The Whip Comes Down (5:06)
3. Let's Spend the Night Together (4:32)
4. Shattered (4:50)
5. Neighbours (4:23)
6. Black Limousine (3:28)
7. Just My Imagination (9:46)
8. Twenty Flight Rock (1:47)
9. Going to a Go-Go (4:03)
10. Let Me Go (5:25)
11. Time Is On My Side (4:13)
12. Beast Of Burden (7:24)
13. Waiting on a Friend (5:55)
14. Let It Bleed (6:33)

Disc 2:
1. You Can't Alway Get What You Want (10:12)
2. Band Intros (1:09)
3. Happy Birthday Keith (0:32)
4. Little T&A (3:58)
5. Tumbling Dice (4:48)
6. She's So cold (4:25)
7. Hang Fire (2:41)
8. Miss You (7:46)
9. Honky Tonk Women (3:42)
10. Brown Sugar (3:39)
11. Start Me Up (5:06)
12. Jumpin' Jack Flash (8:43)
13. (I Can't Get No) Satisfaction (7:28)

EAC-Log, CUE-Sheed & NFO:

Click to open spoiler
Exact Audio Copy V1.0 beta 3 from 29. August 2011

EAC extraction logfile from 5. November 2014, 11:06

Rolling Stones / Hampton Coliseum – Live in 1981 [disc 1]

Used drive : HL-DT-STDVD+-RW GH50N Adapter: 0 ID: 1

Read mode : Secure
Utilize accurate stream : Yes
Defeat audio cache : Yes
Make use of C2 pointers : No

Read offset correction : 667
Overread into Lead-In and Lead-Out : No
Fill up missing offset samples with silence : Yes
Delete leading and trailing silent blocks : No
Null samples used in CRC calculations : Yes
Used interface : Native Win32 interface for Win NT & 2000

Used output format : User Defined Encoder
Selected bitrate : 768 kBit/s
Quality : High
Add ID3 tag : No
Command line compressor : C:\Program Files (x86)\Exact Audio Copy\FLAC\FLAC.EXE
Additional command line options : -V -8 -T “Date=%year%” -T “Genre=%genre%” %source%

TOC of the extracted CD

Track | Start | Length | Start sector | End sector
———————————————————
1 | 0:00.00 | 5:04.11 | 0 | 22810
2 | 5:04.11 | 5:06.65 | 22811 | 45825
3 | 10:11.01 | 4:32.20 | 45826 | 66245
4 | 14:43.21 | 4:50.27 | 66246 | 88022
5 | 19:33.48 | 4:23.08 | 88023 | 107755
6 | 23:56.56 | 3:28.14 | 107756 | 123369
7 | 27:24.70 | 9:46.59 | 123370 | 167378
8 | 37:11.54 | 1:47.34 | 167379 | 175437
9 | 38:59.13 | 4:03.04 | 175438 | 193666
10 | 43:02.17 | 5:25.07 | 193667 | 218048
11 | 48:27.24 | 4:13.24 | 218049 | 237047
12 | 52:40.48 | 7:24.52 | 237048 | 270399
13 | 60:05.25 | 5:55.05 | 270400 | 297029
14 | 66:00.30 | 6:33.37 | 297030 | 326541

Range status and errors

Selected range

Filename C:\222\Vault\1981 – Hampton\CD1\Rolling Stones – Hampton Coliseum – Live in 1981 [disc 1].wav

Peak level 100.0 %
Extraction speed 3.3 X
Range quality 99.9 %
Test CRC 569EE227
Copy CRC 569EE227
Copy OK

No errors occurred

AccurateRip summary

Track 1 not present in database
Track 2 not present in database
Track 3 not present in database
Track 4 not present in database
Track 5 not present in database
Track 6 not present in database
Track 7 not present in database
Track 8 not present in database
Track 9 not present in database
Track 10 not present in database
Track 11 not present in database
Track 12 not present in database
Track 13 not present in database
Track 14 not present in database

None of the tracks are present in the AccurateRip database

End of status report

==== Log checksum 8EF272276635613B576AFFB9AD964325EF12838296C2F3ABDBBBEFC4C6F6013C ====

Exact Audio Copy V1.0 beta 3 from 29. August 2011

EAC extraction logfile from 5. November 2014, 11:56

Rolling Stones / Hampton Coliseum – Live in 1981 [disc 2]

Used drive : HL-DT-STDVD+-RW GH50N Adapter: 0 ID: 1

Read mode : Secure
Utilize accurate stream : Yes
Defeat audio cache : Yes
Make use of C2 pointers : No

Read offset correction : 667
Overread into Lead-In and Lead-Out : No
Fill up missing offset samples with silence : Yes
Delete leading and trailing silent blocks : No
Null samples used in CRC calculations : Yes
Used interface : Native Win32 interface for Win NT & 2000

Used output format : User Defined Encoder
Selected bitrate : 768 kBit/s
Quality : High
Add ID3 tag : No
Command line compressor : C:\Program Files (x86)\Exact Audio Copy\FLAC\FLAC.EXE
Additional command line options : -V -8 -T “Date=%year%” -T “Genre=%genre%” %source%

TOC of the extracted CD

Track | Start | Length | Start sector | End sector
———————————————————
1 | 0:00.00 | 10:12.23 | 0 | 45922
2 | 10:12.23 | 1:09.73 | 45923 | 51170
3 | 11:22.21 | 0:32.38 | 51171 | 53608
4 | 11:54.59 | 3:58.50 | 53609 | 71508
5 | 15:53.34 | 4:48.65 | 71509 | 93173
6 | 20:42.24 | 4:25.63 | 93174 | 113111
7 | 25:08.12 | 2:41.00 | 113112 | 125186
8 | 27:49.12 | 7:46.26 | 125187 | 160162
9 | 35:35.38 | 3:42.40 | 160163 | 176852
10 | 39:18.03 | 3:39.03 | 176853 | 193280
11 | 42:57.06 | 5:06.17 | 193281 | 216247
12 | 48:03.23 | 8:43.32 | 216248 | 255504
13 | 56:46.55 | 7:28.55 | 255505 | 289159

Range status and errors

Selected range

Filename C:\222\Vault\1981 – Hampton\CD2\Rolling Stones – Hampton Coliseum – Live in 1981 [disc 2].wav

Peak level 100.0 %
Extraction speed 3.4 X
Range quality 100.0 %
Test CRC 04069DA4
Copy CRC 04069DA4
Copy OK

No errors occurred

AccurateRip summary

Track 1 not present in database
Track 2 not present in database
Track 3 not present in database
Track 4 not present in database
Track 5 not present in database
Track 6 not present in database
Track 7 not present in database
Track 8 not present in database
Track 9 not present in database
Track 10 not present in database
Track 11 not present in database
Track 12 not present in database
Track 13 not present in database

None of the tracks are present in the AccurateRip database

End of status report

==== Log checksum 1EA687F5F9DAF496539BB385FC34A182152AB100ECDBCF7B28A2B0AC769B3061 ====

REM GENRE “Classic Rock”
REM DATE 2014
REM DISCID C411010E
REM COMMENT “ExactAudioCopy v1.0b3”
PERFORMER “Rolling Stones”
TITLE “Hampton Coliseum – Live in 1981 [disc 1]”
FILE “Rolling Stones – Hampton Coliseum – Live in 1981 [disc 1].flac” WAVE
TRACK 01 AUDIO
TITLE “Under My Thumb”
PERFORMER “Rolling Stones”
INDEX 01 00:00:00
TRACK 02 AUDIO
TITLE “When the Whip Comes Down”
PERFORMER “Rolling Stones”
INDEX 01 05:04:11
TRACK 03 AUDIO
TITLE “Let’s Spend the Night Together”
PERFORMER “Rolling Stones”
INDEX 01 10:11:01
TRACK 04 AUDIO
TITLE “Shattered”
PERFORMER “Rolling Stones”
INDEX 01 14:43:21
TRACK 05 AUDIO
TITLE “Neighbours”
PERFORMER “Rolling Stones”
INDEX 01 19:33:48
TRACK 06 AUDIO
TITLE “Black Limousine”
PERFORMER “Rolling Stones”
INDEX 01 23:56:56
TRACK 07 AUDIO
TITLE “Just My Imagination”
PERFORMER “Rolling Stones”
INDEX 01 27:24:70
TRACK 08 AUDIO
TITLE “Twenty Flight Rock”
PERFORMER “Rolling Stones”
INDEX 01 37:11:54
TRACK 09 AUDIO
TITLE “Going to a Go-Go”
PERFORMER “Rolling Stones”
INDEX 01 38:59:13
TRACK 10 AUDIO
TITLE “Let Me Go”
PERFORMER “Rolling Stones”
INDEX 01 43:02:17
TRACK 11 AUDIO
TITLE “Time Is on My Side”
PERFORMER “Rolling Stones”
INDEX 01 48:27:24
TRACK 12 AUDIO
TITLE “Beast of Burden”
PERFORMER “Rolling Stones”
INDEX 01 52:40:48
TRACK 13 AUDIO
TITLE “Waiting on a Friend”
PERFORMER “Rolling Stones”
INDEX 01 60:05:25
TRACK 14 AUDIO
TITLE “Let It Bleed”
PERFORMER “Rolling Stones”
INDEX 01 66:00:30

REM GENRE “Classic Rock”
REM DATE 2014
REM DISCID B60F0F0D
REM COMMENT “ExactAudioCopy v1.0b3”
PERFORMER “Rolling Stones”
TITLE “Hampton Coliseum – Live in 1981 [disc 2]”
FILE “Rolling Stones – Hampton Coliseum – Live in 1981 [disc 2].flac” WAVE
TRACK 01 AUDIO
TITLE “You Can’t Alway Get What You Want”
PERFORMER “Rolling Stones”
INDEX 01 00:00:00
TRACK 02 AUDIO
TITLE “Band Intros”
PERFORMER “Rolling Stones”
INDEX 01 10:12:23
TRACK 03 AUDIO
TITLE “Happy Birthday Keith”
PERFORMER “Rolling Stones”
INDEX 01 11:22:21
TRACK 04 AUDIO
TITLE “Little T&A”
PERFORMER “Rolling Stones”
INDEX 01 11:54:59
TRACK 05 AUDIO
TITLE “Tumbling Dice”
PERFORMER “Rolling Stones”
INDEX 01 15:53:34
TRACK 06 AUDIO
TITLE “She’s So cold”
PERFORMER “Rolling Stones”
INDEX 01 20:42:24
TRACK 07 AUDIO
TITLE “Hang Fire”
PERFORMER “Rolling Stones”
INDEX 01 25:08:12
TRACK 08 AUDIO
TITLE “Miss You”
PERFORMER “Rolling Stones”
INDEX 01 27:49:12
TRACK 09 AUDIO
TITLE “Honky Tonk Women”
PERFORMER “Rolling Stones”
INDEX 01 35:35:38
TRACK 10 AUDIO
TITLE “Brown Sugar”
PERFORMER “Rolling Stones”
INDEX 01 39:18:03
TRACK 11 AUDIO
TITLE “Start Me Up”
PERFORMER “Rolling Stones”
INDEX 01 42:57:06
TRACK 12 AUDIO
TITLE “Jumpin’ Jack Flash”
PERFORMER “Rolling Stones”
INDEX 01 48:03:23
TRACK 13 AUDIO
TITLE “(I Can’t Get No) Satisfaction”
PERFORMER “Rolling Stones”
INDEX 01 56:46:55


Spread the Download

Leave a Reply

Your email address will not be published. Required fields are marked *

Enter the text from the image below
 

This site uses Akismet to reduce spam. Learn how your comment data is processed.