The Rolling Stones – Grrr! (Limited Deluxe Edition)




No Cover available

Artist: The Rolling Stones
Year: 2012
Genre: Rock
Notes: Discogs
Add. Notes: Limited Deluxe Edition
Watch Songs on: YouTube
Cover incl.: Yes
Encoder: FLAC
Bitrate: ~800 kBit/s (44.1 kHz/16 Bit/s)
Log & Cue incl.: Yes/Yes
Size: 2964,4 MB
Password: “slam” (without ” “)


All Downloads/Hosters are compatible

Download 1
KatFile.com
Turbobit.net
Rapidgator.net
FileFactory.com
Download 2
KatFile.com
Turbobit.net
Rapidgator.net
FileFactory.com

Tracklist:

1-1 Come On 
1-2 I Wanna Be Your Man 
1-3 Not Fade Away 
1-4 That's How Strong My Love Is 
1-5 It's All Over Now 
1-6 Little Red Rooster 
1-7 The Last Time 
1-8 (I Can't Get No) Satisfaction 
1-9 Heart Of Stone 
1-10 Get Off Of My Cloud 
1-11 She Said Yeah 
1-12 I'm Free 
1-13 Play With Fire 
1-14 Time Is On My Side 
1-15 19th Nervous Breakdown 
1-16 Paint It, Black 
1-17 Have You Seen Your Mother, Baby, Standing In The 
Shadow? 
1-18 She's A Rainbow 
1-19 Under My Thumb 
1-20 Out Of Time 
1-21 As Tears Go By 

2-1 Let's Spend The Night Together 
2-2 Mother's Little Helper 
2-3 We Love You 
2-4 Dandelion 
2-5 Lady Jane 
2-6 Flight 505 
2-7 2000 Light Years From Home 
2-8 Ruby Tuesday 
2-9 Jumpin' Jack Flash 
2-10 Sympathy For The Devil 
2-11 Child Of The Moon (R M K) 
2-12 Salt Of The Earth 
2-13 Honky Tonk Woman 
2-14 Midnight Rambler 
2-15 Gimme Shelter 
2-16 You Got The Silver 
2-17 You Can't Always Get What You Want 
2-18 Street Fightin" Man 
2-19 Wild Horses 

3-1 Brown Sugar 
3-2 Bitch 
3-3 Tumblin" Dice 
3-4 Rocks Off 
3-5 Happy 
3-6 Doo Doo Doo Doo Doo (Heartbreaker) 
3-7 Angie 
3-8 It's Only Rock 'N' Roll 
3-9 Dance Little Sister 
3-10 Fool To Cry 
3-11 Respectable 
3-12 Miss You 
3-13 Shattered 
3-14 Far Away Eyes 
3-15 Beast Of Burden 
3-16 Emotional Rescue 
3-17 Dance (Pt. 1) 
3-18 She's So Cold 
3-19 Waiting On A Friend 
3-20 Neighbours 

4-1 Start Me Up 
4-2 Undercover Of The Night 
4-3 She Was Hot 
4-4 Harlem Shuffle 
4-5 Mixed Emotions 
4-6 Highwire 
4-7 Almost Hear You Sign 
4-8 You Got Me Rockin' 
4-9 Love Is Strong 
4-10 I Go Wild 
4-11 Like A Rolling Stone 
4-12 Anybody Seen My Baby? 
4-13 Saint Of Me 
4-14 Don't Stop 
4-15 Rough Justice 
4-16 Rain Fall Down 
4-17 Streets Of Love 
4-18 Plundered My Soul 
4-19 Doom And Gloom 
4-20 One More Shot 

5-1 Diddley Daddy 
5-2 Road Runner 
5-3 Bright Lights Big City 
5-4 Honey What's Wrong 
5-5 I Want To Be Loved

EAC-Log, CUE-Sheed & NFO:

Click to open spoiler
Exact Audio Copy V1.0 beta 3 from 29. August 2011

EAC extraction logfile from 20. November 2012, 21:39

The Rolling Stones / GRRR! (CD1, Super Deluxe Edition)

Used drive : Optiarc DVD RW AD-5200S Adapter: 2 ID: 0

Read mode : Secure
Utilize accurate stream : Yes
Defeat audio cache : Yes
Make use of C2 pointers : No

Read offset correction : 48
Overread into Lead-In and Lead-Out : No
Fill up missing offset samples with silence : Yes
Delete leading and trailing silent blocks : No
Null samples used in CRC calculations : Yes
Used interface : Native Win32 interface for Win NT & 2000

Used output format : User Defined Encoder
Selected bitrate : 1024 kBit/s
Quality : High
Add ID3 tag : No
Command line compressor : C:\Program Files (x86)\Exact Audio Copy\FLAC\FLAC.EXE
Additional command line options : -8 -V -T “ARTIST=%artist%” -T “TITLE=%title%” -T “ALBUM=%albumtitle%” -T “DATE=%year%” -T “TRACKNUMBER=%tracknr%” -T “GENRE=%genre%” -T “PERFORMER=%albuminterpret%” -T “COMPOSER=%composer%” %haslyrics%–tag-from-file=LYRICS=”%lyricsfile%”%haslyrics% -T “ALBUMARTIST=%albumartist%” -T “DISCNUMBER=%cdnumber%” -T “TOTALDISCS=%totalcds%” -T “TOTALTRACKS=%numtracks%” -T “COMMENT=%comment%” %source% -o %dest%

TOC of the extracted CD

Track | Start | Length | Start sector | End sector
———————————————————
1 | 0:00.00 | 1:50.61 | 0 | 8310
2 | 1:50.61 | 1:44.27 | 8311 | 16137
3 | 3:35.13 | 1:48.71 | 16138 | 24308
4 | 5:24.09 | 2:25.50 | 24309 | 35233
5 | 7:49.59 | 3:27.34 | 35234 | 50792
6 | 11:17.18 | 3:07.02 | 50793 | 64819
7 | 14:24.20 | 3:42.31 | 64820 | 81500
8 | 18:06.51 | 3:44.35 | 81501 | 98335
9 | 21:51.11 | 2:50.70 | 98336 | 111155
10 | 24:42.06 | 2:55.27 | 111156 | 124307
11 | 27:37.33 | 1:36.34 | 124308 | 131541
12 | 29:13.67 | 2:24.51 | 131542 | 142392
13 | 31:38.43 | 2:16.23 | 142393 | 152615
14 | 33:54.66 | 3:00.71 | 152616 | 166186
15 | 36:55.62 | 3:59.23 | 166187 | 184134
16 | 40:55.10 | 3:24.23 | 184135 | 199457
17 | 44:19.33 | 2:36.09 | 199458 | 211166
18 | 46:55.42 | 4:13.64 | 211167 | 230205
19 | 51:09.31 | 3:43.34 | 230206 | 246964
20 | 54:52.65 | 3:43.48 | 246965 | 263737
21 | 58:36.38 | 2:48.14 | 263738 | 276351

Range status and errors

Selected range

Filename G:\CD\The Rolling Stones – GRRR! (CD1, Super Deluxe Edition).wav

Peak level 99.5 %
Extraction speed 4.1 X
Range quality 100.0 %
Test CRC 66C69F87
Copy CRC 66C69F87
Copy OK

No errors occurred

AccurateRip summary

Track 1 not present in database
Track 2 not present in database
Track 3 not present in database
Track 4 not present in database
Track 5 not present in database
Track 6 not present in database
Track 7 not present in database
Track 8 not present in database
Track 9 not present in database
Track 10 not present in database
Track 11 not present in database
Track 12 not present in database
Track 13 not present in database
Track 14 not present in database
Track 15 not present in database
Track 16 not present in database
Track 17 not present in database
Track 18 not present in database
Track 19 not present in database
Track 20 not present in database
Track 21 not present in database

None of the tracks are present in the AccurateRip database

End of status report

==== Log checksum 8C95D4B9A6C72C7341A6D7AA79FFB36F958031AF9012BAB6FE47BB17467F2CF9 ====

Exact Audio Copy V1.0 beta 3 from 29. August 2011

EAC extraction logfile from 20. November 2012, 22:18

The Rolling Stones / GRRR! (CD2, Super Deluxe Edition)

Used drive : Optiarc DVD RW AD-5200S Adapter: 2 ID: 0

Read mode : Secure
Utilize accurate stream : Yes
Defeat audio cache : Yes
Make use of C2 pointers : No

Read offset correction : 48
Overread into Lead-In and Lead-Out : No
Fill up missing offset samples with silence : Yes
Delete leading and trailing silent blocks : No
Null samples used in CRC calculations : Yes
Used interface : Native Win32 interface for Win NT & 2000

Used output format : User Defined Encoder
Selected bitrate : 1024 kBit/s
Quality : High
Add ID3 tag : No
Command line compressor : C:\Program Files (x86)\Exact Audio Copy\FLAC\FLAC.EXE
Additional command line options : -8 -V -T “ARTIST=%artist%” -T “TITLE=%title%” -T “ALBUM=%albumtitle%” -T “DATE=%year%” -T “TRACKNUMBER=%tracknr%” -T “GENRE=%genre%” -T “PERFORMER=%albuminterpret%” -T “COMPOSER=%composer%” %haslyrics%–tag-from-file=LYRICS=”%lyricsfile%”%haslyrics% -T “ALBUMARTIST=%albumartist%” -T “DISCNUMBER=%cdnumber%” -T “TOTALDISCS=%totalcds%” -T “TOTALTRACKS=%numtracks%” -T “COMMENT=%comment%” %source% -o %dest%

TOC of the extracted CD

Track | Start | Length | Start sector | End sector
———————————————————
1 | 0:00.00 | 3:39.32 | 0 | 16456
2 | 3:39.32 | 2:47.60 | 16457 | 29041
3 | 6:27.17 | 4:25.15 | 29042 | 48931
4 | 10:52.32 | 3:34.47 | 48932 | 65028
5 | 14:27.04 | 3:09.21 | 65029 | 79224
6 | 17:36.25 | 3:27.70 | 79225 | 94819
7 | 21:04.20 | 4:48.60 | 94820 | 116479
8 | 25:53.05 | 3:15.12 | 116480 | 131116
9 | 29:08.17 | 3:43.32 | 131117 | 147873
10 | 32:51.49 | 6:18.37 | 147874 | 176260
11 | 39:10.11 | 3:11.36 | 176261 | 190621
12 | 42:21.47 | 4:48.68 | 190622 | 212289
13 | 47:10.40 | 3:01.46 | 212290 | 225910
14 | 50:12.11 | 6:54.15 | 225911 | 256975
15 | 57:06.26 | 4:32.48 | 256976 | 277423
16 | 61:38.74 | 2:52.13 | 277424 | 290336
17 | 64:31.12 | 4:48.67 | 290337 | 312003
18 | 69:20.04 | 3:16.27 | 312004 | 326730
19 | 72:36.31 | 5:46.26 | 326731 | 352706

Range status and errors

Selected range

Filename G:\CD\The Rolling Stones – GRRR! (CD2, Super Deluxe Edition).wav

Peak level 100.0 %
Extraction speed 4.5 X
Range quality 99.9 %
Test CRC F64F335D
Copy CRC F64F335D
Copy OK

No errors occurred

AccurateRip summary

Track 1 not present in database
Track 2 not present in database
Track 3 not present in database
Track 4 not present in database
Track 5 not present in database
Track 6 not present in database
Track 7 not present in database
Track 8 not present in database
Track 9 not present in database
Track 10 not present in database
Track 11 not present in database
Track 12 not present in database
Track 13 not present in database
Track 14 not present in database
Track 15 not present in database
Track 16 not present in database
Track 17 not present in database
Track 18 not present in database
Track 19 not present in database

None of the tracks are present in the AccurateRip database

End of status report

==== Log checksum E4C5B8091083E8D56C99ABEB5BB5FFE3A9D3CFB7FEF03F7FC2C4A0F71CAF2416 ====

Exact Audio Copy V1.0 beta 3 from 29. August 2011

EAC extraction logfile from 20. November 2012, 23:48

The Rolling Stones / Grrr! [Disc 4 – Super Deluxe Edition]

Used drive : Optiarc DVD RW AD-5200S Adapter: 2 ID: 0

Read mode : Secure
Utilize accurate stream : Yes
Defeat audio cache : Yes
Make use of C2 pointers : No

Read offset correction : 48
Overread into Lead-In and Lead-Out : No
Fill up missing offset samples with silence : Yes
Delete leading and trailing silent blocks : No
Null samples used in CRC calculations : Yes
Used interface : Native Win32 interface for Win NT & 2000

Used output format : User Defined Encoder
Selected bitrate : 1024 kBit/s
Quality : High
Add ID3 tag : No
Command line compressor : C:\Program Files (x86)\Exact Audio Copy\FLAC\FLAC.EXE
Additional command line options : -8 -V -T “ARTIST=%artist%” -T “TITLE=%title%” -T “ALBUM=%albumtitle%” -T “DATE=%year%” -T “TRACKNUMBER=%tracknr%” -T “GENRE=%genre%” -T “PERFORMER=%albuminterpret%” -T “COMPOSER=%composer%” %haslyrics%–tag-from-file=LYRICS=”%lyricsfile%”%haslyrics% -T “ALBUMARTIST=%albumartist%” -T “DISCNUMBER=%cdnumber%” -T “TOTALDISCS=%totalcds%” -T “TOTALTRACKS=%numtracks%” -T “COMMENT=%comment%” %source% -o %dest%

TOC of the extracted CD

Track | Start | Length | Start sector | End sector
———————————————————
1 | 0:00.00 | 3:33.65 | 0 | 16039
2 | 3:33.65 | 4:13.49 | 16040 | 35063
3 | 7:47.39 | 4:41.42 | 35064 | 56180
4 | 12:29.06 | 3:23.48 | 56181 | 71453
5 | 15:52.54 | 4:00.22 | 71454 | 89475
6 | 19:53.01 | 3:44.23 | 89476 | 106298
7 | 23:37.24 | 4:37.35 | 106299 | 127108
8 | 28:14.59 | 3:35.72 | 127109 | 143305
9 | 31:50.56 | 3:47.58 | 143306 | 160388
10 | 35:38.39 | 4:23.50 | 160389 | 180163
11 | 40:02.14 | 4:26.25 | 180164 | 200138
12 | 44:28.39 | 4:07.27 | 200139 | 218690
13 | 48:35.66 | 4:09.05 | 218691 | 237370
14 | 52:44.71 | 3:29.45 | 237371 | 253090
15 | 56:14.41 | 3:12.15 | 253091 | 267505
16 | 59:26.56 | 4:01.50 | 267506 | 285630
17 | 63:28.31 | 5:09.33 | 285631 | 308838
18 | 68:37.64 | 3:58.35 | 308839 | 326723
19 | 72:36.24 | 3:58.67 | 326724 | 344640
20 | 76:35.16 | 3:05.56 | 344641 | 358571

Range status and errors

Selected range

Filename G:\CD\The Rolling Stones – Grrr! [Disc 4 – Super Deluxe Edition].wav

Peak level 100.0 %
Extraction speed 4.6 X
Range quality 100.0 %
Test CRC AC2E9120
Copy CRC AC2E9120
Copy OK

No errors occurred

AccurateRip summary

Track 1 not present in database
Track 2 not present in database
Track 3 not present in database
Track 4 not present in database
Track 5 not present in database
Track 6 not present in database
Track 7 not present in database
Track 8 not present in database
Track 9 not present in database
Track 10 not present in database
Track 11 not present in database
Track 12 not present in database
Track 13 not present in database
Track 14 not present in database
Track 15 not present in database
Track 16 not present in database
Track 17 not present in database
Track 18 not present in database
Track 19 not present in database
Track 20 not present in database

None of the tracks are present in the AccurateRip database

End of status report

==== Log checksum AFB65D1C7F872F1CFD29BBBAFE5283FD717560C07E10F16E545EEBF569A75109 ====

Exact Audio Copy V1.0 beta 3 from 29. August 2011

EAC extraction logfile from 21. November 2012, 0:02

Rolling Stones / IBC Demos – Grrr! [Bonus Disc – Super Deluxe Edition]

Used drive : Optiarc DVD RW AD-5200S Adapter: 2 ID: 0

Read mode : Secure
Utilize accurate stream : Yes
Defeat audio cache : Yes
Make use of C2 pointers : No

Read offset correction : 48
Overread into Lead-In and Lead-Out : No
Fill up missing offset samples with silence : Yes
Delete leading and trailing silent blocks : No
Null samples used in CRC calculations : Yes
Used interface : Native Win32 interface for Win NT & 2000

Used output format : User Defined Encoder
Selected bitrate : 1024 kBit/s
Quality : High
Add ID3 tag : No
Command line compressor : C:\Program Files (x86)\Exact Audio Copy\FLAC\FLAC.EXE
Additional command line options : -8 -V -T “ARTIST=%artist%” -T “TITLE=%title%” -T “ALBUM=%albumtitle%” -T “DATE=%year%” -T “TRACKNUMBER=%tracknr%” -T “GENRE=%genre%” -T “PERFORMER=%albuminterpret%” -T “COMPOSER=%composer%” %haslyrics%–tag-from-file=LYRICS=”%lyricsfile%”%haslyrics% -T “ALBUMARTIST=%albumartist%” -T “DISCNUMBER=%cdnumber%” -T “TOTALDISCS=%totalcds%” -T “TOTALTRACKS=%numtracks%” -T “COMMENT=%comment%” %source% -o %dest%

TOC of the extracted CD

Track | Start | Length | Start sector | End sector
———————————————————
1 | 0:00.00 | 2:38.69 | 0 | 11918
2 | 2:38.69 | 3:04.70 | 11919 | 25788
3 | 5:43.64 | 2:26.55 | 25789 | 36793
4 | 8:10.44 | 3:26.55 | 36794 | 52298
5 | 11:37.24 | 2:02.40 | 52299 | 61488

Range status and errors

Selected range

Filename G:\CD\Rolling Stones – IBC Demos – Grrr! [Bonus Disc – Super Deluxe Edition].wav

Peak level 97.8 %
Extraction speed 2.9 X
Range quality 100.0 %
Test CRC 88BFECCA
Copy CRC 88BFECCA
Copy OK

No errors occurred

AccurateRip summary

Track 1 not present in database
Track 2 not present in database
Track 3 not present in database
Track 4 not present in database
Track 5 not present in database

None of the tracks are present in the AccurateRip database

End of status report

==== Log checksum F52C1E4445B8DD771C83A2DEB48275B018B0A7AA2A18C8B82FE8907E6ED99635 ====

Exact Audio Copy V1.0 beta 3 from 29. August 2011

EAC extraction logfile from 20. November 2012, 22:58

The Rolling Stones / GRRR! (CD3, Super Deluxe Edition)

Used drive : Optiarc DVD RW AD-5200S Adapter: 2 ID: 0

Read mode : Secure
Utilize accurate stream : Yes
Defeat audio cache : Yes
Make use of C2 pointers : No

Read offset correction : 48
Overread into Lead-In and Lead-Out : No
Fill up missing offset samples with silence : Yes
Delete leading and trailing silent blocks : No
Null samples used in CRC calculations : Yes
Used interface : Native Win32 interface for Win NT & 2000

Used output format : User Defined Encoder
Selected bitrate : 1024 kBit/s
Quality : High
Add ID3 tag : No
Command line compressor : C:\Program Files (x86)\Exact Audio Copy\FLAC\FLAC.EXE
Additional command line options : -8 -V -T “ARTIST=%artist%” -T “TITLE=%title%” -T “ALBUM=%albumtitle%” -T “DATE=%year%” -T “TRACKNUMBER=%tracknr%” -T “GENRE=%genre%” -T “PERFORMER=%albuminterpret%” -T “COMPOSER=%composer%” %haslyrics%–tag-from-file=LYRICS=”%lyricsfile%”%haslyrics% -T “ALBUMARTIST=%albumartist%” -T “DISCNUMBER=%cdnumber%” -T “TOTALDISCS=%totalcds%” -T “TOTALTRACKS=%numtracks%” -T “COMMENT=%comment%” %source% -o %dest%

TOC of the extracted CD

Track | Start | Length | Start sector | End sector
———————————————————
1 | 0:00.00 | 3:50.67 | 0 | 17316
2 | 3:50.67 | 3:37.50 | 17317 | 33641
3 | 7:28.42 | 3:46.42 | 33642 | 50633
4 | 11:15.09 | 4:33.00 | 50634 | 71108
5 | 15:48.09 | 3:06.03 | 71109 | 85061
6 | 18:54.12 | 3:27.45 | 85062 | 100631
7 | 22:21.57 | 4:32.54 | 100632 | 121085
8 | 26:54.36 | 4:11.15 | 121086 | 139925
9 | 31:05.51 | 4:12.57 | 139926 | 158882
10 | 35:18.33 | 4:08.63 | 158883 | 177545
11 | 39:27.21 | 3:09.03 | 177546 | 191723
12 | 42:36.24 | 3:34.66 | 191724 | 207839
13 | 46:11.15 | 3:48.07 | 207840 | 224946
14 | 49:59.22 | 4:25.10 | 224947 | 244831
15 | 54:24.32 | 3:30.07 | 244832 | 260588
16 | 57:54.39 | 3:43.08 | 260589 | 277321
17 | 61:37.47 | 4:23.26 | 277322 | 297072
18 | 66:00.73 | 4:13.64 | 297073 | 316111
19 | 70:14.62 | 4:35.32 | 316112 | 336768
20 | 74:50.19 | 3:34.47 | 336769 | 352865

Range status and errors

Selected range

Filename G:\CD\The Rolling Stones – GRRR! (CD3, Super Deluxe Edition).wav

Peak level 100.0 %
Extraction speed 4.5 X
Range quality 100.0 %
Test CRC EAA8FB64
Copy CRC EAA8FB64
Copy OK

No errors occurred

AccurateRip summary

Track 1 not present in database
Track 2 not present in database
Track 3 not present in database
Track 4 not present in database
Track 5 not present in database
Track 6 not present in database
Track 7 not present in database
Track 8 not present in database
Track 9 not present in database
Track 10 not present in database
Track 11 not present in database
Track 12 not present in database
Track 13 not present in database
Track 14 not present in database
Track 15 not present in database
Track 16 not present in database
Track 17 not present in database
Track 18 not present in database
Track 19 not present in database
Track 20 not present in database

None of the tracks are present in the AccurateRip database

End of status report

==== Log checksum 08C78AF6D9CEF3498F58286F46EC1C39C759078162A2050BE9A5173934A6050F ====

REM GENRE “Rock & Roll”
REM DATE 2012
REM DISCID 250E6415
REM COMMENT “ExactAudioCopy v1.0b3”
PERFORMER “The Rolling Stones”
TITLE “GRRR! (CD1, Super Deluxe Edition)”
FILE “The Rolling Stones – GRRR! (CD1, Super Deluxe Edition).flac” WAVE
TRACK 01 AUDIO
TITLE “Come On”
PERFORMER “The Rolling Stones”
INDEX 01 00:00:00
TRACK 02 AUDIO
TITLE “I Wanna Be Your Man”
PERFORMER “The Rolling Stones”
INDEX 01 01:50:61
TRACK 03 AUDIO
TITLE “Not Fade Away”
PERFORMER “The Rolling Stones”
INDEX 01 03:35:13
TRACK 04 AUDIO
TITLE “That’s How Strong My Love Is”
PERFORMER “The Rolling Stones”
INDEX 01 05:24:09
TRACK 05 AUDIO
TITLE “It’s All Over Now”
PERFORMER “The Rolling Stones”
INDEX 01 07:49:59
TRACK 06 AUDIO
TITLE “Little Red Rooster”
PERFORMER “The Rolling Stones”
INDEX 01 11:17:18
TRACK 07 AUDIO
TITLE “The Last Time”
PERFORMER “The Rolling Stones”
INDEX 01 14:24:20
TRACK 08 AUDIO
TITLE “Satisfaction”
PERFORMER “The Rolling Stones”
INDEX 01 18:06:51
TRACK 09 AUDIO
TITLE “Heart Of Stone”
PERFORMER “The Rolling Stones”
INDEX 01 21:51:11
TRACK 10 AUDIO
TITLE “Get Off Of My Cloud”
PERFORMER “The Rolling Stones”
INDEX 01 24:42:06
TRACK 11 AUDIO
TITLE “She Said Yeah”
PERFORMER “The Rolling Stones”
INDEX 01 27:37:33
TRACK 12 AUDIO
TITLE “I’m Free”
PERFORMER “The Rolling Stones”
INDEX 01 29:13:67
TRACK 13 AUDIO
TITLE “Play With Fire”
PERFORMER “The Rolling Stones”
INDEX 01 31:38:43
TRACK 14 AUDIO
TITLE “Time Is On My Side”
PERFORMER “The Rolling Stones”
INDEX 01 33:54:66
TRACK 15 AUDIO
TITLE “19th Nervous Breakdown”
PERFORMER “The Rolling Stones”
INDEX 01 36:55:62
TRACK 16 AUDIO
TITLE “Paint It Black”
PERFORMER “The Rolling Stones”
INDEX 01 40:55:10
TRACK 17 AUDIO
TITLE “Have You Seen Your Mother Baby, Standing In The Shadow?”
PERFORMER “The Rolling Stones”
INDEX 01 44:19:33
TRACK 18 AUDIO
TITLE “She’s A Rainbow”
PERFORMER “The Rolling Stones”
INDEX 01 46:55:42
TRACK 19 AUDIO
TITLE “Under My Thumb”
PERFORMER “The Rolling Stones”
INDEX 01 51:09:31
TRACK 20 AUDIO
TITLE “Out Of Time”
PERFORMER “The Rolling Stones”
INDEX 01 54:52:65
TRACK 21 AUDIO
TITLE “As Tears Go By”
PERFORMER “The Rolling Stones”
INDEX 01 58:36:38

REM GENRE Rock
REM DATE 2012
REM DISCID 12125E13
REM COMMENT “ExactAudioCopy v1.0b3”
PERFORMER “The Rolling Stones”
TITLE “GRRR! (CD2, Super Deluxe Edition)”
FILE “The Rolling Stones – GRRR! (CD2, Super Deluxe Edition).flac” WAVE
TRACK 01 AUDIO
TITLE “Let’s Spend the Night Together”
PERFORMER “The Rolling Stones”
INDEX 01 00:00:00
TRACK 02 AUDIO
TITLE “Mother’s Little Helper”
PERFORMER “The Rolling Stones”
INDEX 01 03:39:32
TRACK 03 AUDIO
TITLE “We Love You”
PERFORMER “The Rolling Stones”
INDEX 01 06:27:17
TRACK 04 AUDIO
TITLE “Dandelion”
PERFORMER “The Rolling Stones”
INDEX 01 10:52:32
TRACK 05 AUDIO
TITLE “Lady Jane”
PERFORMER “The Rolling Stones”
INDEX 01 14:27:04
TRACK 06 AUDIO
TITLE “Flight 505”
PERFORMER “The Rolling Stones”
INDEX 01 17:36:25
TRACK 07 AUDIO
TITLE “2000 Light Years from Home”
PERFORMER “The Rolling Stones”
INDEX 01 21:04:20
TRACK 08 AUDIO
TITLE “Ruby Tuesday”
PERFORMER “The Rolling Stones”
INDEX 01 25:53:05
TRACK 09 AUDIO
TITLE “Jumpin’ Jack Flash”
PERFORMER “The Rolling Stones”
INDEX 01 29:08:17
TRACK 10 AUDIO
TITLE “Sympathy for the Devil”
PERFORMER “The Rolling Stones”
INDEX 01 32:51:49
TRACK 11 AUDIO
TITLE “Child of the Moon (RMK)”
PERFORMER “The Rolling Stones”
INDEX 01 39:10:11
TRACK 12 AUDIO
TITLE “Salt of the Earth”
PERFORMER “The Rolling Stones”
INDEX 01 42:21:47
TRACK 13 AUDIO
TITLE “Honky Tonk Women”
PERFORMER “The Rolling Stones”
INDEX 01 47:10:40
TRACK 14 AUDIO
TITLE “Midnight Rambler”
PERFORMER “The Rolling Stones”
INDEX 01 50:12:11
TRACK 15 AUDIO
TITLE “Gimme Shelter”
PERFORMER “The Rolling Stones”
INDEX 01 57:06:26
TRACK 16 AUDIO
TITLE “You Got the Silver”
PERFORMER “The Rolling Stones”
INDEX 01 61:38:74
TRACK 17 AUDIO
TITLE “You Can’t Always Get What You Want”
PERFORMER “The Rolling Stones”
INDEX 01 64:31:12
TRACK 18 AUDIO
TITLE “Street Fighting Man”
PERFORMER “The Rolling Stones”
INDEX 01 69:20:04
TRACK 19 AUDIO
TITLE “Wild Horses”
PERFORMER “The Rolling Stones”
INDEX 01 72:36:31

REM GENRE Rock
REM DATE 2012
REM DISCID 27126014
REM COMMENT “ExactAudioCopy v1.0b3”
PERFORMER “The Rolling Stones”
TITLE “GRRR! (CD3, Super Deluxe Edition)”
FILE “The Rolling Stones – GRRR! (CD3, Super Deluxe Edition).flac” WAVE
TRACK 01 AUDIO
TITLE “Brown Sugar”
PERFORMER “The Rolling Stones”
INDEX 01 00:00:00
TRACK 02 AUDIO
TITLE “Bitch”
PERFORMER “The Rolling Stones”
INDEX 01 03:50:67
TRACK 03 AUDIO
TITLE “Tumbling Dice”
PERFORMER “The Rolling Stones”
INDEX 01 07:28:42
TRACK 04 AUDIO
TITLE “Rocks Off”
PERFORMER “The Rolling Stones”
INDEX 01 11:15:09
TRACK 05 AUDIO
TITLE “Happy”
PERFORMER “The Rolling Stones”
INDEX 01 15:48:09
TRACK 06 AUDIO
TITLE “Doo Doo Doo Doo Doo (Heartbreaker)”
PERFORMER “The Rolling Stones”
INDEX 01 18:54:12
INDEX 02 22:21:42
TRACK 07 AUDIO
TITLE “Angie”
PERFORMER “The Rolling Stones”
INDEX 01 22:21:57
TRACK 08 AUDIO
TITLE “It’s Only Rock ‘n’ Roll”
PERFORMER “The Rolling Stones”
INDEX 01 26:54:36
TRACK 09 AUDIO
TITLE “Dance Little Sister”
PERFORMER “The Rolling Stones”
INDEX 01 31:05:51
TRACK 10 AUDIO
TITLE “Fool to Cry”
PERFORMER “The Rolling Stones”
INDEX 01 35:18:33
TRACK 11 AUDIO
TITLE “Respectable”
PERFORMER “The Rolling Stones”
INDEX 01 39:27:21
TRACK 12 AUDIO
TITLE “Miss You”
PERFORMER “The Rolling Stones”
INDEX 01 42:36:24
TRACK 13 AUDIO
TITLE “Shattered”
PERFORMER “The Rolling Stones”
INDEX 01 46:11:15
TRACK 14 AUDIO
TITLE “Far Away Eyes”
PERFORMER “The Rolling Stones”
INDEX 01 49:59:22
TRACK 15 AUDIO
TITLE “Beast of Burden”
PERFORMER “The Rolling Stones”
INDEX 01 54:24:32
TRACK 16 AUDIO
TITLE “Emotional Rescue”
PERFORMER “The Rolling Stones”
INDEX 01 57:54:39
TRACK 17 AUDIO
TITLE “Dance (Pt 1)”
PERFORMER “The Rolling Stones”
INDEX 01 61:37:47
TRACK 18 AUDIO
TITLE “She’s So Cold”
PERFORMER “The Rolling Stones”
INDEX 01 66:00:73
TRACK 19 AUDIO
TITLE “Waiting on a Friend”
PERFORMER “The Rolling Stones”
INDEX 01 70:14:62
TRACK 20 AUDIO
TITLE “Neighbours”
PERFORMER “The Rolling Stones”
INDEX 01 74:50:19

REM GENRE Rock
REM DATE 2012
REM DISCID 3312AC14
REM COMMENT ExactAudioCopy v1.0b3
PERFORMER “The Rolling Stones”
TITLE “GRRR! (CD4, Super Deluxe Edition)”
FILE “The Rolling Stones – Grrr! [Disc 4 – Super Deluxe Edition].flac” WAVE
TRACK 01 AUDIO
TITLE “Start Me Up”
INDEX 01 00:00:00
TRACK 02 AUDIO
TITLE “Undercover of the Night”
INDEX 01 03:33:65
TRACK 03 AUDIO
TITLE “She Was Hot”
INDEX 01 07:47:39
TRACK 04 AUDIO
TITLE “Harlem Shuffle”
INDEX 01 12:29:06
TRACK 05 AUDIO
TITLE “Mixed Emotions”
INDEX 01 15:52:54
TRACK 06 AUDIO
TITLE “Highwire”
INDEX 01 19:53:01
TRACK 07 AUDIO
TITLE “Almost Hear You Sigh”
INDEX 01 23:37:24
TRACK 08 AUDIO
TITLE “You Got Me Rocking”
INDEX 01 28:14:59
TRACK 09 AUDIO
TITLE “Love is Strong”
INDEX 01 31:50:56
TRACK 10 AUDIO
TITLE “I Go Wild”
INDEX 01 35:38:39
TRACK 11 AUDIO
TITLE “Like a Rolling Stone”
INDEX 01 40:02:14
TRACK 12 AUDIO
TITLE “Anybody Seen My Baby?”
INDEX 01 44:28:39
TRACK 13 AUDIO
TITLE “Saint of Me”
INDEX 01 48:35:66
TRACK 14 AUDIO
TITLE “Don’t Stop”
INDEX 01 52:44:71
TRACK 15 AUDIO
TITLE “Rough Justice”
INDEX 01 56:14:41
TRACK 16 AUDIO
TITLE “Rain Fall Down”
INDEX 01 59:26:56
TRACK 17 AUDIO
TITLE “Streets of Love”
INDEX 01 63:28:31
TRACK 18 AUDIO
TITLE “Plundered My Soul”
INDEX 01 68:37:64
TRACK 19 AUDIO
TITLE “Doom and Gloom”
INDEX 01 72:36:24
TRACK 20 AUDIO
TITLE “One More Shot”
INDEX 01 76:35:16


Leave a Reply

Your email address will not be published. Required fields are marked *

Enter the text from the image below
 

This site uses Akismet to reduce spam. Learn how your comment data is processed.