The Rolling Stones – Got Live If You Want It! (Japanese Edition)




No Cover available

Artist: The Rolling Stones
Year: 1966/1989
Genre: Rock
Notes: Discogs
Add. Notes: Japanese Edition
Watch Songs on: YouTube
Cover incl.: Yes
Encoder: FLAC
Bitrate: ~800 kBit/s (44.1 kHz/16 Bit/s)
Log & Cue incl.: Yes/Yes
Size: 288,5 MB
Password: “slam” (without ” “)


All Downloads/Hosters are compatible

Download 1
KatFile.com
Turbobit.net
Rapidgator.net
FileFactory.com
Download 2
KatFile.com
Turbobit.net
Rapidgator.net
FileFactory.com

Tracklist:

1 Under My Thumb 2:53
2 Get Off Of My Cloud 3:00
3 Lady Jane 3:18
4 Not Fade Away 2:13
5 I've Been Loving You Too Long 3:04
6 Fortune Teller 2:16
7 The Last Time 3:21
8 19th Nervous Breakdown 3:34
9 Time Is On My Side 3:00
10 I'm Alright 2:28
11 Have You Seen Your Mother, Baby, ? 2:25
12 (I Can't Get No) Satisfaction 3:53

EAC-Log, CUE-Sheed & NFO:

Click to open spoiler
Exact Audio Copy V1.0 beta 3 from 29. August 2011

EAC extraction logfile from 9. April 2013, 18:37

The Rolling Stones / Got Live If You Want It! (P25L 25038)

Used drive : PLEXTOR DVDR PX-891SA Adapter: 1 ID: 0

Read mode : Secure
Utilize accurate stream : Yes
Defeat audio cache : Yes
Make use of C2 pointers : No

Read offset correction : 6
Overread into Lead-In and Lead-Out : No
Fill up missing offset samples with silence : Yes
Delete leading and trailing silent blocks : No
Null samples used in CRC calculations : Yes
Used interface : Native Win32 interface for Win NT & 2000

Used output format : User Defined Encoder
Selected bitrate : 1024 kBit/s
Quality : High
Add ID3 tag : No
Command line compressor : C:\Program Files\Exact Audio Copy\Flac\flac.exe
Additional command line options : -V -8 -T “Genre=%genre%” -T “Artist=%artist%” -T “Title=%title%” -T “Album=%albumtitle%” -T “Date=%year%” -T “Tracknumber=%tracknr%” -T “Comment=%comment%” %source%

TOC of the extracted CD

Track | Start | Length | Start sector | End sector
———————————————————
1 | 0:00.37 | 2:53.28 | 37 | 13039
2 | 2:53.65 | 3:00.02 | 13040 | 26541
3 | 5:53.67 | 3:18.20 | 26542 | 41411
4 | 9:12.12 | 2:12.45 | 41412 | 51356
5 | 11:24.57 | 3:03.60 | 51357 | 65141
6 | 14:28.42 | 2:15.70 | 65142 | 75336
7 | 16:44.37 | 3:20.63 | 75337 | 90399
8 | 20:05.25 | 3:34.25 | 90400 | 106474
9 | 23:39.50 | 3:00.25 | 106475 | 119999
10 | 26:40.00 | 2:28.10 | 120000 | 131109
11 | 29:08.10 | 2:25.32 | 131110 | 142016
12 | 31:33.42 | 3:53.30 | 142017 | 159521

Range status and errors

Selected range

Filename H:\dafnaplus\1966 Got Live If You Want It! [Polydor P25L 25038]\The Rolling Stones – Got Live If You Want It! (P25L 25038).wav

Peak level 100.0 %
Extraction speed 7.7 X
Range quality 100.0 %
Test CRC 3FBCBAB3
Copy CRC 3FBCBAB3
Copy OK

No errors occurred

AccurateRip summary

Track 1 not present in database
Track 2 not present in database
Track 3 not present in database
Track 4 not present in database
Track 5 not present in database
Track 6 not present in database
Track 7 not present in database
Track 8 not present in database
Track 9 not present in database
Track 10 not present in database
Track 11 not present in database
Track 12 not present in database

None of the tracks are present in the AccurateRip database

End of status report

==== Log checksum E4E7F7B8ACC5CB343F2D39774DFA788D23A04233E25F46E946068C9F91617682 ====

REM GENRE Rock
REM DATE 1989
REM DISCID 93084E0C
REM COMMENT “ExactAudioCopy v1.0b3”
CATALOG 0000000000000
PERFORMER “The Rolling Stones”
TITLE “Got Live If You Want It! (P25L 25038)”
FILE “The Rolling Stones – Got Live If You Want It! (P25L 25038).flac” WAVE
TRACK 01 AUDIO
TITLE “Under My Thumb”
PERFORMER “The Rolling Stones”
INDEX 00 00:00:00
INDEX 01 00:00:37
TRACK 02 AUDIO
TITLE “Get Off My Cloud”
PERFORMER “The Rolling Stones”
INDEX 00 02:47:43
INDEX 01 02:53:65
TRACK 03 AUDIO
TITLE “Lady Jane”
PERFORMER “The Rolling Stones”
INDEX 00 05:49:52
INDEX 01 05:53:67
TRACK 04 AUDIO
TITLE “Not Fade Away”
PERFORMER “The Rolling Stones”
INDEX 00 09:06:64
INDEX 01 09:12:12
TRACK 05 AUDIO
TITLE “I’ve Been Loving You Too Long”
PERFORMER “The Rolling Stones”
INDEX 00 11:19:69
INDEX 01 11:24:57
TRACK 06 AUDIO
TITLE “Fortune Teller”
PERFORMER “The Rolling Stones”
INDEX 00 14:25:01
INDEX 01 14:28:42
TRACK 07 AUDIO
TITLE “The Last Time”
PERFORMER “The Rolling Stones”
INDEX 00 16:40:53
INDEX 01 16:44:37
TRACK 08 AUDIO
TITLE “19th Nervous Breakdown”
PERFORMER “The Rolling Stones”
INDEX 00 20:01:30
INDEX 01 20:05:25
TRACK 09 AUDIO
TITLE “Time Is On My Side”
PERFORMER “The Rolling Stones”
INDEX 00 23:34:74
INDEX 01 23:39:50
TRACK 10 AUDIO
TITLE “I’m Alright”
PERFORMER “The Rolling Stones”
INDEX 00 26:36:09
INDEX 01 26:40:00
TRACK 11 AUDIO
TITLE “Have You Seen Your Mother, Baby, Standing In The Shadow?”
PERFORMER “The Rolling Stones”
INDEX 00 29:05:21
INDEX 01 29:08:10
TRACK 12 AUDIO
TITLE “Satisfaction”
PERFORMER “The Rolling Stones”
INDEX 00 31:29:68
INDEX 01 31:33:42


Leave a Reply

Your email address will not be published. Required fields are marked *

Enter the text from the image below
 

This site uses Akismet to reduce spam. Learn how your comment data is processed.