The Rolling Stones – Goats Head Soup (Limited Remastered Japanese Edition)




[Total: 0    Average: 0/5]

Artist: The Rolling Stones
Year: 1973/2013
Genre: Rock
Notes: Discogs
Add. Notes: Limited Remastered Japanese Edition
Cover incl.: Yes
Encoder: FLAC
Bitrate: ~800 kBit/s (44.1 kHz/16 Bit/s)
Log & Cue incl.: Yes
Size: 321,39 MB
Password: “slam” (without ” “)


All Downloads/Hosters are compatible

Download 1
Share-online.biz
KatFile.com
Rapidgator.net
NitroFlare.com
Download 2
Share-online.biz
KatFile.com
Rapidgator.net
NitroFlare.com

Tracklist:

1 - Dancing With Mr. D. - 4:52
2 - 100 Years Ago - 4:00
3 - Coming Down Again - 5:55
4 - Doo Doo Doo Doo Doo (Heartbreaker) - 3:27
5 - Angie - 4:31
6 - Silver Train - 4:25
7 - Hide Your Love - 4:10
8 - Winter - 5:30
9 - Can You Hear The Music - 5:32
10 - Star Star - 4:25

EAC-Log, CUE-Sheed & NFO:

Click to open spoiler
Exact Audio Copy V1.0 beta 3 from 29. August 2011

EAC extraction logfile from 1. May 2014, 20:57

The Rolling Stones / Goats Head Soup PT-SHM

Used drive : PLEXTOR BD-R PX-B950SA Adapter: 6 ID: 0

Read mode : Secure
Utilize accurate stream : Yes
Defeat audio cache : Yes
Make use of C2 pointers : No

Read offset correction : 6
Overread into Lead-In and Lead-Out : No
Fill up missing offset samples with silence : Yes
Delete leading and trailing silent blocks : No
Null samples used in CRC calculations : Yes
Used interface : Native Win32 interface for Win NT & 2000

Used output format : Internal WAV Routines
Sample format : 44.100 Hz; 16 Bit; Stereo

TOC of the extracted CD

Track | Start | Length | Start sector | End sector
———————————————————
1 | 0:00.00 | 4:53.38 | 0 | 22012
2 | 4:53.38 | 3:59.40 | 22013 | 39977
3 | 8:53.03 | 5:55.10 | 39978 | 66612
4 | 14:48.13 | 3:27.60 | 66613 | 82197
5 | 18:15.73 | 4:33.35 | 82198 | 102707
6 | 22:49.33 | 4:26.45 | 102708 | 122702
7 | 27:16.03 | 4:13.35 | 122703 | 141712
8 | 31:29.38 | 5:30.65 | 141713 | 166527
9 | 37:00.28 | 5:35.52 | 166528 | 191704
10 | 42:36.05 | 4:27.15 | 191705 | 211744

Range status and errors

Selected range

Filename C:\Users\Meijin\Desktop\Lossless Galaxy ALLexxess\The Rolling Stones\1973 Goats Head Soup (Mini LP PT-SHM Universal Japan 2013)\The Rolling Stones – Goats Head Soup PT-SHM.wav

Peak level 95.6 %
Extraction speed 7.0 X
Range quality 100.0 %
Test CRC 214271CB
Copy CRC 214271CB
Copy OK

No errors occurred

AccurateRip summary

Track 1 accurately ripped (confidence 2) [66D75A17] (AR v2)
Track 2 accurately ripped (confidence 2) [B63FF424] (AR v2)
Track 3 accurately ripped (confidence 2) [C2C41DC4] (AR v2)
Track 4 accurately ripped (confidence 2) [F968DFC2] (AR v2)
Track 5 accurately ripped (confidence 2) [63CD18FE] (AR v2)
Track 6 accurately ripped (confidence 2) [BC880E0F] (AR v2)
Track 7 accurately ripped (confidence 2) [B1761673] (AR v2)
Track 8 accurately ripped (confidence 2) [D88DB361] (AR v2)
Track 9 accurately ripped (confidence 2) [B9721EFE] (AR v2)
Track 10 accurately ripped (confidence 2) [AD6F72F3] (AR v2)

All tracks accurately ripped

End of status report

==== Log checksum 85874F8597EC8D1CB6AFD821D6B32B42586FF20E8999A581AE679CC6ADCD093D ====

REM GENRE “Rock / Rock & Roll / Classic Rock”
REM DATE 1973
REM DISCID 8E0B070A
REM COMMENT “ExactAudioCopy v1.0b3”
PERFORMER “The Rolling Stones”
TITLE “Goats Head Soup PT-SHM”
FILE “The Rolling Stones – Goats Head Soup PT-SHM.flac” WAVE
TRACK 01 AUDIO
TITLE “Dancing With Mr D.”
PERFORMER “The Rolling Stones”
INDEX 01 00:00:00
TRACK 02 AUDIO
TITLE “100 Years Ago”
PERFORMER “The Rolling Stones”
INDEX 01 04:53:38
TRACK 03 AUDIO
TITLE “Coming Down Again”
PERFORMER “The Rolling Stones”
INDEX 01 08:53:03
TRACK 04 AUDIO
TITLE “Doo Doo Doo Doo Doo (Heartbreaker)”
PERFORMER “The Rolling Stones”
INDEX 01 14:48:13
TRACK 05 AUDIO
TITLE “Angie”
PERFORMER “The Rolling Stones”
INDEX 00 18:14:66
INDEX 01 18:15:73
TRACK 06 AUDIO
TITLE “Silver Train”
PERFORMER “The Rolling Stones”
INDEX 00 22:48:41
INDEX 01 22:49:33
TRACK 07 AUDIO
TITLE “Hide Your Love”
PERFORMER “The Rolling Stones”
INDEX 01 27:16:03
TRACK 08 AUDIO
TITLE “Winter”
PERFORMER “The Rolling Stones”
INDEX 00 31:28:59
INDEX 01 31:29:38
TRACK 09 AUDIO
TITLE “Can You Hear The Music”
PERFORMER “The Rolling Stones”
INDEX 00 36:59:69
INDEX 01 37:00:28
TRACK 10 AUDIO
TITLE “Star Star”
PERFORMER “The Rolling Stones”
INDEX 00 42:34:16
INDEX 01 42:36:05


Spread the Download

Leave a Reply

Your email address will not be published. Required fields are marked *

Enter the text from the image below
 

This site uses Akismet to reduce spam. Learn how your comment data is processed.