The Rolling Stones – Flowers




Artist: The Rolling Stones
Year: 1986
Genre: Rock
Notes: Discogs
Add. Notes:
Cover incl.: Yes
Encoder: FLAC
Bitrate: ~800 kBit/s (44.1 kHz/16 Bit/s)
Log & Cue incl.: Yes
Size: 257,76 MB
Password: “slam” (without ” “)


All Downloads/Hosters are compatible

Download 1
KatFile.com
Turbobit.net
FileFactory.com
Rapidgator.net
Download 2
KatFile.com
Turbobit.net
FileFactory.com
Rapidgator.net

Tracklist:

1 Ruby Tuesday 3:13
2 Have You Seen Your Mother, Baby, Standing In The 
Shadow? 2:31
3 Let's Spend The Night Together 3:19
4 Lady Jane 3:06
5 Out Of Time 3:40
6 My Girl 2:35
7 Backstreet Girl 3:27
8 Please Go Home 3:18
9 Mother's Little Helper 2:40
10 Take It Or Leave It 2:51
11 Ride On, Baby 2:53
12 Sittin' On A Fence 2:53

EAC-Log, CUE-Sheed & NFO:

Click to open spoiler
Exact Audio Copy V1.0 beta 3 from 29. August 2011

EAC extraction logfile from 17. March 2013, 0:28

The Rolling Stones / Flowers (ABKCO 75092)

Used drive : PLEXTOR DVDR PX-891SA Adapter: 1 ID: 0

Read mode : Secure
Utilize accurate stream : Yes
Defeat audio cache : Yes
Make use of C2 pointers : No

Read offset correction : 6
Overread into Lead-In and Lead-Out : No
Fill up missing offset samples with silence : Yes
Delete leading and trailing silent blocks : No
Null samples used in CRC calculations : Yes
Used interface : Native Win32 interface for Win NT & 2000

Used output format : User Defined Encoder
Selected bitrate : 1024 kBit/s
Quality : High
Add ID3 tag : No
Command line compressor : C:\Program Files\Exact Audio Copy\Flac\flac.exe
Additional command line options : -V -8 -T “Genre=%genre%” -T “Artist=%artist%” -T “Title=%title%” -T “Album=%albumtitle%” -T “Date=%year%” -T “Tracknumber=%tracknr%” -T “Comment=%comment%” %source%

TOC of the extracted CD

Track | Start | Length | Start sector | End sector
———————————————————
1 | 0:00.00 | 3:18.60 | 0 | 14909
2 | 3:18.60 | 2:36.45 | 14910 | 26654
3 | 5:55.30 | 3:40.10 | 26655 | 43164
4 | 9:35.40 | 3:12.42 | 43165 | 57606
5 | 12:48.07 | 3:45.40 | 57607 | 74521
6 | 16:33.47 | 2:42.55 | 74522 | 86726
7 | 19:16.27 | 3:29.53 | 86727 | 102454
8 | 22:46.05 | 3:20.05 | 102455 | 117459
9 | 26:06.10 | 2:48.65 | 117460 | 130124
10 | 28:55.00 | 2:51.70 | 130125 | 143019
11 | 31:46.70 | 2:56.62 | 143020 | 156281
12 | 34:43.57 | 3:03.05 | 156282 | 170011

Range status and errors

Selected range

Filename H:\dafnaplus\1967 Flowers [ABKCO 75092]\The Rolling Stones – Flowers (ABKCO 75092).wav

Peak level 100.0 %
Extraction speed 7.7 X
Range quality 100.0 %
Test CRC 3BBF9A8A
Copy CRC 3BBF9A8A
Copy OK

No errors occurred

AccurateRip summary

Track 1 accurately ripped (confidence 3) [2E3D286B] (AR v2)
Track 2 accurately ripped (confidence 3) [FB97CD29] (AR v2)
Track 3 accurately ripped (confidence 3) [EE217CED] (AR v2)
Track 4 accurately ripped (confidence 3) [5DC9CAA9] (AR v2)
Track 5 accurately ripped (confidence 3) [8815969B] (AR v2)
Track 6 accurately ripped (confidence 3) [F5002582] (AR v2)
Track 7 accurately ripped (confidence 3) [08C5A4E1] (AR v2)
Track 8 accurately ripped (confidence 3) [151A86D0] (AR v2)
Track 9 accurately ripped (confidence 3) [948E0BCB] (AR v2)
Track 10 accurately ripped (confidence 3) [DD08D28D] (AR v2)
Track 11 accurately ripped (confidence 3) [59CB1AE6] (AR v2)
Track 12 accurately ripped (confidence 3) [2560BC9B] (AR v2)

All tracks accurately ripped

End of status report

==== Log checksum A8A7AE4058BFE953DA55090E94A2D775EDC38445013FEBE303FFE73F27124E6C ====

REM GENRE Rock
REM DATE 1986
REM DISCID B308DA0C
REM COMMENT “ExactAudioCopy v1.0b3”
PERFORMER “The Rolling Stones”
TITLE “Flowers (ABKCO 75092)”
FILE “The Rolling Stones – Flowers (ABKCO 75092).flac” WAVE
TRACK 01 AUDIO
TITLE “Ruby Tuesday”
PERFORMER “The Rolling Stones”
INDEX 01 00:00:00
TRACK 02 AUDIO
TITLE “Have You Seen Your Mother, Baby, Standing in the Shadow?”
PERFORMER “The Rolling Stones”
INDEX 00 03:16:00
INDEX 01 03:18:60
TRACK 03 AUDIO
TITLE “Let’s Spend the Night Together”
PERFORMER “The Rolling Stones”
INDEX 00 05:52:37
INDEX 01 05:55:30
TRACK 04 AUDIO
TITLE “Lady Jane”
PERFORMER “The Rolling Stones”
INDEX 00 09:32:50
INDEX 01 09:35:40
TRACK 05 AUDIO
TITLE “Out of Time”
PERFORMER “The Rolling Stones”
INDEX 00 12:45:50
INDEX 01 12:48:07
TRACK 06 AUDIO
TITLE “My Girl”
PERFORMER “The Rolling Stones”
INDEX 00 16:30:62
INDEX 01 16:33:47
TRACK 07 AUDIO
TITLE “Backstreet Girl”
PERFORMER “The Rolling Stones”
INDEX 00 19:12:62
INDEX 01 19:16:27
TRACK 08 AUDIO
TITLE “Please Go Home”
PERFORMER “The Rolling Stones”
INDEX 00 22:42:62
INDEX 01 22:46:05
TRACK 09 AUDIO
TITLE “Mother’s Little Helper”
PERFORMER “The Rolling Stones”
INDEX 00 26:03:25
INDEX 01 26:06:10
TRACK 10 AUDIO
TITLE “Take It or Leave It”
PERFORMER “The Rolling Stones”
INDEX 00 28:52:12
INDEX 01 28:55:00
TRACK 11 AUDIO
TITLE “Ride On, Baby”
PERFORMER “The Rolling Stones”
INDEX 00 31:43:00
INDEX 01 31:46:70
TRACK 12 AUDIO
TITLE “Sittin’ on a Fence”
PERFORMER “The Rolling Stones”
INDEX 00 34:40:37
INDEX 01 34:43:57


Leave a Reply

Your email address will not be published. Required fields are marked *

This site uses Akismet to reduce spam. Learn how your comment data is processed.