The Rolling Stones – Flowers (Japanese Edition)




Artist: The Rolling Stones
Year: 1967/1995
Genre: Rock
Notes: Discogs
Add. Notes: Japanese Edition
Cover incl.: Yes
Encoder: FLAC
Bitrate: ~800 kBit/s (44.1 kHz/16 Bit/s)
Log & Cue incl.: Yes
Size: 293,71 MB
Password: “slam” (without ” “)


All Downloads/Hosters are compatible

Download 1
Turbobit.net
KatFile.com
Rapidgator.net
Download 2
Turbobit.net
KatFile.com
Rapidgator.net

Tracklist:

1. Ruby Tuesday (3:17)
2. Have You Seen Your Mother, Baby, Standing In The 
Shadow (2:34)
3. Let's Spend The Night Together (3:38)
4. Lady Jane (3:08)
5. Out Of Time (3:44)
6. My Girl (2:40)
7. Backstreet Girl (3:25)
8. Please Go Home (3:16)
9. Mother's Little Helper (2:44)
10. Take It Or Leave It (2:46)
11. Ride On, Baby (2:54)
12. Sittin' On A Fence (3:04)

EAC-Log, CUE-Sheed & NFO:

Click to open spoiler
Exact Audio Copy V1.0 beta 3 from 29. August 2011

EAC extraction logfile from 7. April 2013, 23:18

The Rolling Stones / Flowers (POCD-1921)

Used drive : PLEXTOR DVDR PX-891SA Adapter: 1 ID: 0

Read mode : Secure
Utilize accurate stream : Yes
Defeat audio cache : Yes
Make use of C2 pointers : No

Read offset correction : 6
Overread into Lead-In and Lead-Out : No
Fill up missing offset samples with silence : Yes
Delete leading and trailing silent blocks : No
Null samples used in CRC calculations : Yes
Used interface : Native Win32 interface for Win NT & 2000

Used output format : User Defined Encoder
Selected bitrate : 1024 kBit/s
Quality : High
Add ID3 tag : No
Command line compressor : C:\Program Files\Exact Audio Copy\Flac\flac.exe
Additional command line options : -V -8 -T “Genre=%genre%” -T “Artist=%artist%” -T “Title=%title%” -T “Album=%albumtitle%” -T “Date=%year%” -T “Tracknumber=%tracknr%” -T “Comment=%comment%” %source%

TOC of the extracted CD

Track | Start | Length | Start sector | End sector
———————————————————
1 | 0:00.32 | 3:22.03 | 32 | 15184
2 | 3:22.35 | 2:38.30 | 15185 | 27064
3 | 6:00.65 | 3:44.65 | 27065 | 43929
4 | 9:45.55 | 3:12.00 | 43930 | 58329
5 | 12:57.55 | 3:46.10 | 58330 | 75289
6 | 16:43.65 | 2:42.50 | 75290 | 87489
7 | 19:26.40 | 3:28.67 | 87490 | 103156
8 | 22:55.32 | 3:19.43 | 103157 | 118124
9 | 26:15.00 | 2:49.07 | 118125 | 130806
10 | 29:04.07 | 2:50.58 | 130807 | 143614
11 | 31:54.65 | 2:57.70 | 143615 | 156959
12 | 34:52.60 | 3:03.60 | 156960 | 170744

Range status and errors

Selected range

Filename H:\dafnaplus\The Rolling Stones – Flowers [Polydor POCD-1921]\The Rolling Stones – Flowers (POCD-1921).wav

Peak level 100.0 %
Extraction speed 7.3 X
Range quality 100.0 %
Test CRC B2D3E64D
Copy CRC B2D3E64D
Copy OK

No errors occurred

AccurateRip summary

Track 1 cannot be verified as accurate (confidence 1) [0DE32593], AccurateRip returned [12F94605] (AR v2)
Track 2 cannot be verified as accurate (confidence 1) [8D06FD4F], AccurateRip returned [482853DF] (AR v2)
Track 3 cannot be verified as accurate (confidence 1) [1858619E], AccurateRip returned [0569CE78] (AR v2)
Track 4 cannot be verified as accurate (confidence 1) [668BC508], AccurateRip returned [E188A853] (AR v2)
Track 5 cannot be verified as accurate (confidence 1) [AA249F84], AccurateRip returned [E46900E0] (AR v2)
Track 6 cannot be verified as accurate (confidence 1) [1895682D], AccurateRip returned [11481350] (AR v2)
Track 7 cannot be verified as accurate (confidence 1) [876D527F], AccurateRip returned [C80E4AB8] (AR v2)
Track 8 cannot be verified as accurate (confidence 1) [126DE924], AccurateRip returned [313DD21B] (AR v2)
Track 9 cannot be verified as accurate (confidence 1) [3DB1F656], AccurateRip returned [4B614BD3] (AR v2)
Track 10 cannot be verified as accurate (confidence 1) [146CC749], AccurateRip returned [B2D70E7F] (AR v2)
Track 11 cannot be verified as accurate (confidence 1) [FD053F0A], AccurateRip returned [88E88585] (AR v2)
Track 12 cannot be verified as accurate (confidence 1) [566FE65B], AccurateRip returned [98BC8DBA] (AR v2)

No tracks could be verified as accurate
You may have a different pressing from the one(s) in the database

End of status report

==== Log checksum 9A7F1EBAF10839B1085F949FCF03F2009F96EF92CBF9F0EBBB52C63D1D8E1920 ====

REM GENRE Rock
REM DATE 1995
REM DISCID AC08E40C
REM COMMENT “ExactAudioCopy v1.0b3”
CATALOG 4988005156686
PERFORMER “The Rolling Stones”
TITLE “Flowers (POCD-1921)”
FILE “The Rolling Stones – Flowers (POCD-1921).flac” WAVE
TRACK 01 AUDIO
TITLE “Ruby Tuesday”
PERFORMER “The Rolling Stones”
ISRC 000000000000
INDEX 00 00:00:00
INDEX 01 00:00:32
TRACK 02 AUDIO
TITLE “Have You Seen Your Mother, Baby, Standing In The Shadow”
PERFORMER “The Rolling Stones”
ISRC 000000000000
INDEX 00 03:17:52
INDEX 01 03:22:35
TRACK 03 AUDIO
TITLE “Let’s Spend The Night Together”
PERFORMER “The Rolling Stones”
ISRC 000000000000
INDEX 00 05:56:25
INDEX 01 06:00:65
TRACK 04 AUDIO
TITLE “Lady Jane”
PERFORMER “The Rolling Stones”
ISRC 000000000000
INDEX 00 09:38:37
INDEX 01 09:45:55
TRACK 05 AUDIO
TITLE “Out Of Time”
PERFORMER “The Rolling Stones”
ISRC 000000000000
INDEX 00 12:53:57
INDEX 01 12:57:55
TRACK 06 AUDIO
TITLE “My Girl”
PERFORMER “The Rolling Stones”
ISRC 000000000000
INDEX 00 16:41:05
INDEX 01 16:43:65
TRACK 07 AUDIO
TITLE “Backstreet Girl”
PERFORMER “The Rolling Stones”
ISRC 000000000000
INDEX 00 19:23:07
INDEX 01 19:26:40
TRACK 08 AUDIO
TITLE “Please Go Home”
PERFORMER “The Rolling Stones”
ISRC 000000000000
INDEX 00 22:51:25
INDEX 01 22:55:32
TRACK 09 AUDIO
TITLE “Mother’s Little Helper”
PERFORMER “The Rolling Stones”
ISRC 000000000000
INDEX 00 26:11:20
INDEX 01 26:15:00
TRACK 10 AUDIO
TITLE “Take It Or Leave It”
PERFORMER “The Rolling Stones”
ISRC 000000000000
INDEX 00 28:59:42
INDEX 01 29:04:07
TRACK 11 AUDIO
TITLE “Ride On, Baby”
PERFORMER “The Rolling Stones”
ISRC 000000000000
INDEX 00 31:50:27
INDEX 01 31:54:65
TRACK 12 AUDIO
TITLE “Sittin’ On A Fence”
PERFORMER “The Rolling Stones”
ISRC 000000000000
INDEX 00 34:48:47
INDEX 01 34:52:60


Leave a Reply

Your email address will not be published. Required fields are marked *

Enter the text from the image below
 

This site uses Akismet to reduce spam. Learn how your comment data is processed.