The Rolling Stones – Flashpoint




[Total: 0    Average: 0/5]

Artist: The Rolling Stones
Year: 1991
Genre: Rock
Notes: Discogs
Add. Notes:
Cover incl.: Yes
Encoder: FLAC
Bitrate: ~900 kBit/s (44.1 kHz/16 Bit/s)
Log & Cue incl.: Yes
Size: 527 MB
Password: “slam” (without ” “)


All Downloads/Hosters are compatible

Download 1
KatFile.com
Turbobit.net
FileFactory.com
Rapidgator.net
Download 2
KatFile.com
Turbobit.net
FileFactory.com
Rapidgator.net

Tracklist:

1 - (Intro) Continental Drift - 0:27
2 - Start Me Up - 3:54
3 - Sad Sad Sad - 3:36
4 - Miss You - 5:53
5 - Rock And A Hard Place - 4:51
6 - Ruby Tuesday - 3:37
7 - You Can't Always Get What You 
Want - 7:19
8 - Factory Girl - 2:48
9 - Can't Be Seen - 4:25
10 - Little Red Rooster - 5:12
11 - Paint It Black - 4:12
12 - Sympathy For The Devil - 5:31
13 - Brown Sugar - 4:12
14 - Jumping Jack Flash - 5:00
15 - Satisfaction - 6:09
16 - Highwire - 4:37
17 - Sex Drive - 5:04

EAC-Log, CUE-Sheed & NFO:

Click to open spoiler
Exact Audio Copy V1.0 beta 3 from 29. August 2011

EAC extraction logfile from 5. March 2013, 10:21

The Rolling Stones / Flashpoint [CBS]

Used drive : HL-DT-STDVD+-RW GH50N Adapter: 0 ID: 1

Read mode : Secure
Utilize accurate stream : Yes
Defeat audio cache : Yes
Make use of C2 pointers : No

Read offset correction : 667
Overread into Lead-In and Lead-Out : No
Fill up missing offset samples with silence : Yes
Delete leading and trailing silent blocks : No
Null samples used in CRC calculations : Yes
Used interface : Native Win32 interface for Win NT & 2000

Used output format : User Defined Encoder
Selected bitrate : 768 kBit/s
Quality : High
Add ID3 tag : No
Command line compressor : C:\Program Files (x86)\Exact Audio Copy\FLAC\FLAC.EXE
Additional command line options : -V -8 -T “Date=%year%” -T “Genre=%genre%” %source%

TOC of the extracted CD

Track | Start | Length | Start sector | End sector
———————————————————
1 | 0:00.00 | 0:26.22 | 0 | 1971
2 | 0:26.22 | 3:54.48 | 1972 | 19569
3 | 4:20.70 | 3:33.12 | 19570 | 35556
4 | 7:54.07 | 5:55.43 | 35557 | 62224
5 | 13:49.50 | 4:52.30 | 62225 | 84154
6 | 18:42.05 | 3:33.60 | 84155 | 100189
7 | 22:15.65 | 7:26.30 | 100190 | 133669
8 | 29:42.20 | 2:47.62 | 133670 | 146256
9 | 32:30.07 | 4:17.40 | 146257 | 165571
10 | 36:47.47 | 5:15.63 | 165572 | 189259
11 | 42:03.35 | 4:02.57 | 189260 | 207466
12 | 46:06.17 | 5:35.13 | 207467 | 232604
13 | 51:41.30 | 4:06.47 | 232605 | 251101
14 | 55:48.02 | 5:00.03 | 251102 | 273604
15 | 60:48.05 | 6:09.10 | 273605 | 301289
16 | 66:57.15 | 4:45.45 | 301290 | 322709
17 | 71:42.60 | 5:07.25 | 322710 | 345759

Range status and errors

Selected range

Filename C:\222\CBS\1991 – Flashpoint\The Rolling Stones – Flashpoint [CBS].wav

Peak level 97.2 %
Extraction speed 3.4 X
Range quality 99.9 %
Test CRC A0EDE3B7
Copy CRC A0EDE3B7
Copy OK

No errors occurred

AccurateRip summary

Track 1 accurately ripped (confidence 29) [D73A34A3] (AR v2)
Track 2 accurately ripped (confidence 29) [078BDEF3] (AR v2)
Track 3 accurately ripped (confidence 29) [04843A2D] (AR v2)
Track 4 accurately ripped (confidence 29) [F692BC8E] (AR v2)
Track 5 accurately ripped (confidence 29) [3BB6641C] (AR v2)
Track 6 accurately ripped (confidence 28) [7DAE0C4B] (AR v2)
Track 7 accurately ripped (confidence 29) [47027416] (AR v2)
Track 8 accurately ripped (confidence 29) [91197384] (AR v2)
Track 9 accurately ripped (confidence 29) [3E7394C4] (AR v2)
Track 10 accurately ripped (confidence 29) [2535A33D] (AR v2)
Track 11 accurately ripped (confidence 30) [F2C6BE7C] (AR v2)
Track 12 accurately ripped (confidence 29) [E6F48003] (AR v2)
Track 13 accurately ripped (confidence 28) [59218236] (AR v2)
Track 14 accurately ripped (confidence 28) [17EF9AFA] (AR v2)
Track 15 accurately ripped (confidence 29) [DCD410E3] (AR v2)
Track 16 accurately ripped (confidence 27) [F7B716CA] (AR v2)
Track 17 accurately ripped (confidence 29) [0CA4442D] (AR v2)

All tracks accurately ripped

End of status report

==== Log checksum 541F46C05EEBAB68E1A65B6800CD1C2E521D55B621EF0898F057B7FA5F879E9B ====

REM GENRE Rock
REM DATE 1991
REM DISCID D9120211
REM COMMENT “ExactAudioCopy v1.0b3”
PERFORMER “The Rolling Stones”
TITLE “Flashpoint [CBS]”
FILE “The Rolling Stones – Flashpoint [CBS].flac” WAVE
TRACK 01 AUDIO
TITLE “(Intro) Continental drift”
PERFORMER “The Rolling Stones”
INDEX 01 00:00:00
TRACK 02 AUDIO
TITLE “Start me up”
PERFORMER “The Rolling Stones”
INDEX 01 00:26:22
TRACK 03 AUDIO
TITLE “Sad sad sad”
PERFORMER “The Rolling Stones”
INDEX 01 04:20:70
TRACK 04 AUDIO
TITLE “Miss you”
PERFORMER “The Rolling Stones”
INDEX 01 07:54:07
TRACK 05 AUDIO
TITLE “Rock and a hard place”
PERFORMER “The Rolling Stones”
INDEX 01 13:49:50
TRACK 06 AUDIO
TITLE “Ruby Tuesday”
PERFORMER “The Rolling Stones”
INDEX 01 18:42:05
TRACK 07 AUDIO
TITLE “You can’t always get what you want”
PERFORMER “The Rolling Stones”
INDEX 01 22:15:65
TRACK 08 AUDIO
TITLE “Factory girl”
PERFORMER “The Rolling Stones”
INDEX 01 29:42:20
TRACK 09 AUDIO
TITLE “Can’t be seen”
PERFORMER “The Rolling Stones”
INDEX 01 32:30:07
TRACK 10 AUDIO
TITLE “Little red rooster”
PERFORMER “The Rolling Stones”
INDEX 01 36:47:47
TRACK 11 AUDIO
TITLE “Paint it black”
PERFORMER “The Rolling Stones”
INDEX 01 42:03:35
TRACK 12 AUDIO
TITLE “Sympathy for the devil”
PERFORMER “The Rolling Stones”
INDEX 01 46:06:17
TRACK 13 AUDIO
TITLE “Brown sugar”
PERFORMER “The Rolling Stones”
INDEX 01 51:41:30
TRACK 14 AUDIO
TITLE “Jumping Jack Flash”
PERFORMER “The Rolling Stones”
INDEX 01 55:48:02
TRACK 15 AUDIO
TITLE “Satisfaction”
PERFORMER “The Rolling Stones”
INDEX 01 60:48:05
TRACK 16 AUDIO
TITLE “Highwire”
PERFORMER “The Rolling Stones”
INDEX 01 66:57:15
TRACK 17 AUDIO
TITLE “Sex drive”
PERFORMER “The Rolling Stones”
INDEX 00 71:42:30
INDEX 01 71:42:60


Spread the Download

Leave a Reply

Your email address will not be published. Required fields are marked *

Enter the text from the image below
 

This site uses Akismet to reduce spam. Learn how your comment data is processed.