The Rolling Stones – Flashpoint (Limited Japanese Edition)




No Cover available


Artist: The Rolling Stones
Year: 1991/2015
Genre: Rock
Notes: Discogs
Add. Notes: Limited Japanese Edition
Watch Songs on: YouTube
Cover incl.: Yes
Encoder: FLAC
Bitrate: ~900 kBit/s (44.1 kHz/16 Bit/s)
Log & Cue incl.: Yes/Yes
Size: 620,4 MB
Password: “slam” (without ” “)


All Downloads/Hosters are compatible

Download 1
KatFile.com
Turbobit.net
Rapidgator.net
FileFactory.com
Download 2
KatFile.com
Turbobit.net
Rapidgator.net
FileFactory.com

Tracklist:

1 Continental Drift (Intro) 0:27
2 Start Me Up 3:54
3 Sad Sad Sad 3:36
4 Miss You 5:53
5 Rock And A Hard Place 4:51
6 Ruby Tuesday 3:37
7 You Can't Always Get What You Want 7:19
8 Factory Girl 2:48
9 Can't Be Seen 4:25
10 Little Red Rooster 5:12
11 Paint It Black 4:12
12 Sympathy For The Devil 5:31
13 Brown Sugar 4:12
14 Jumping Jack Flash 5:00
15 Satisfaction 6:09
16 Highwire 4:37
17 Sex Drive 5:04

EAC-Log, CUE-Sheed & NFO:

Click to open spoiler
Exact Audio Copy V1.1 from 23. June 2015

EAC extraction logfile from 16. December 2015, 19:22

The Rolling Stones / Flashpoint PT-SHM

Used drive : PLEXTOR BD-R PX-B950SA Adapter: 1 ID: 1

Read mode : Secure
Utilize accurate stream : Yes
Defeat audio cache : Yes
Make use of C2 pointers : No

Read offset correction : 6
Overread into Lead-In and Lead-Out : No
Fill up missing offset samples with silence : Yes
Delete leading and trailing silent blocks : No
Null samples used in CRC calculations : Yes
Used interface : Native Win32 interface for Win NT & 2000

Used output format : Internal WAV Routines
Sample format : 44.100 Hz; 16 Bit; Stereo

TOC of the extracted CD

Track | Start | Length | Start sector | End sector
———————————————————
1 | 0:00.00 | 0:26.62 | 0 | 2011
2 | 0:26.62 | 3:54.43 | 2012 | 19604
3 | 4:21.30 | 3:33.27 | 19605 | 35606
4 | 7:54.57 | 5:55.43 | 35607 | 62274
5 | 13:50.25 | 4:52.27 | 62275 | 84201
6 | 18:42.52 | 3:33.55 | 84202 | 100231
7 | 22:16.32 | 7:26.48 | 100232 | 133729
8 | 29:43.05 | 2:47.67 | 133730 | 146321
9 | 32:30.72 | 4:17.38 | 146322 | 165634
10 | 36:48.35 | 5:15.65 | 165635 | 189324
11 | 42:04.25 | 4:02.40 | 189325 | 207514
12 | 46:06.65 | 5:35.40 | 207515 | 232679
13 | 51:42.30 | 4:10.70 | 232680 | 251499
14 | 55:53.25 | 5:00.10 | 251500 | 274009
15 | 60:53.35 | 6:09.07 | 274010 | 301691
16 | 67:02.42 | 4:46.20 | 301692 | 323161
17 | 71:48.62 | 5:09.10 | 323162 | 346346

Range status and errors

Selected range

Filename C:\Users\Meijin\Desktop\Lossless Galaxy ALLexxess\Rolling Stones\1991 Flashpoint (Mini LP PT-SHM Universal Japan 2015)\The Rolling Stones – Flashpoint PT-SHM.wav

Peak level 100.0 %
Extraction speed 7.6 X
Range quality 99.9 %
Test CRC 8E8F5E1B
Copy CRC 8E8F5E1B
Copy OK

No errors occurred

AccurateRip summary

Track 1 not present in database
Track 2 not present in database
Track 3 not present in database
Track 4 not present in database
Track 5 not present in database
Track 6 not present in database
Track 7 not present in database
Track 8 not present in database
Track 9 not present in database
Track 10 not present in database
Track 11 not present in database
Track 12 not present in database
Track 13 not present in database
Track 14 not present in database
Track 15 not present in database
Track 16 not present in database
Track 17 not present in database

None of the tracks are present in the AccurateRip database

End of status report

—- CUETools DB Plugin V2.1.6

[CTDB TOCID: 1du0H3FBXMZvbDedEsADr6o8S6g-] disk not present in database
Submit result: 1du0H3FBXMZvbDedEsADr6o8S6g- has been uploaded

==== Log checksum 6BFF925B2345A11EA0B0B20E03C4BFA49070B2D7A1AFCFD7282BF6E292164ED5 ====

REM GENRE Rock
REM DATE 1991
REM DISCID DA120911
REM COMMENT “ExactAudioCopy v1.1”
PERFORMER “The Rolling Stones”
TITLE “Flashpoint PT-SHM”
FILE “The Rolling Stones – Flashpoint PT-SHM.flac” WAVE
TRACK 01 AUDIO
TITLE “Continental Drift (Intro)”
PERFORMER “The Rolling Stones”
INDEX 01 00:00:00
TRACK 02 AUDIO
TITLE “Start Me Up”
PERFORMER “The Rolling Stones”
INDEX 01 00:26:62
TRACK 03 AUDIO
TITLE “Sad Sad Sad”
PERFORMER “The Rolling Stones”
INDEX 01 04:21:30
TRACK 04 AUDIO
TITLE “Miss You”
PERFORMER “The Rolling Stones”
INDEX 01 07:54:57
TRACK 05 AUDIO
TITLE “Rock And A Hard Place”
PERFORMER “The Rolling Stones”
INDEX 01 13:50:25
TRACK 06 AUDIO
TITLE “Ruby Tuesday”
PERFORMER “The Rolling Stones”
INDEX 01 18:42:52
TRACK 07 AUDIO
TITLE “You Can’t Always Get What You Want”
PERFORMER “The Rolling Stones”
INDEX 01 22:16:32
TRACK 08 AUDIO
TITLE “Factory Girl”
PERFORMER “The Rolling Stones”
INDEX 01 29:43:05
TRACK 09 AUDIO
TITLE “Can’t Be Seen”
PERFORMER “The Rolling Stones”
INDEX 01 32:30:72
TRACK 10 AUDIO
TITLE “Little Red Rooster”
PERFORMER “The Rolling Stones”
INDEX 01 36:48:35
TRACK 11 AUDIO
TITLE “Paint It Black”
PERFORMER “The Rolling Stones”
INDEX 01 42:04:25
TRACK 12 AUDIO
TITLE “Sympathy For The Devil”
PERFORMER “The Rolling Stones”
INDEX 01 46:06:65
TRACK 13 AUDIO
TITLE “Brown Sugar”
PERFORMER “The Rolling Stones”
INDEX 01 51:42:30
TRACK 14 AUDIO
TITLE “Jumpin’ Jack Flash”
PERFORMER “The Rolling Stones”
INDEX 01 55:53:25
TRACK 15 AUDIO
TITLE “Satisfaction”
PERFORMER “The Rolling Stones”
INDEX 01 60:53:35
TRACK 16 AUDIO
TITLE “Highwire”
PERFORMER “The Rolling Stones”
INDEX 01 67:02:42
TRACK 17 AUDIO
TITLE “Sex Drive”
PERFORMER “The Rolling Stones”
INDEX 01 71:48:62


Leave a Reply

Your email address will not be published. Required fields are marked *

Enter the text from the image below
 

This site uses Akismet to reduce spam. Learn how your comment data is processed.