The Rolling Stones – Exile On Main St. (Reissue)




Artist: The Rolling Stones
Year: 1972/1987
Genre: Rock
Notes: Discogs
Add. Notes: Reissue
Cover incl.: Yes
Encoder: FLAC
Bitrate: ~800 kBit/s (44.1 kHz/16 Bit/s)
Log & Cue incl.: Yes
Size: 458 MB
Password: “slam” (without ” “)


All Downloads/Hosters are compatible

Download 1
KatFile.com
Turbobit.net
FileFactory.com
Rapidgator.net
Download 2
KatFile.com
Turbobit.net
FileFactory.com
Rapidgator.net

Tracklist:

1 - Rocks Off - 4:29
2 - Rip This Joint - 2:12
3 - Shake Your Hips - 2:59
4 - Casino Boogie - 3:32
5 - Tumbling Dice - 3:44
6 - Sweet Virginia - 4:25
7 - Torn And Frayed - 4:16
8 - Sweet Black Angel - 2:55
9 - Loving Cup - 4:22
10 - Happy - 3:02
11 - Turd On The Run - 2:35
12 - Ventilator Blues - 3:24
13 - I Just Want To See His Face - 
2:51
14 - Let It Loose - 5:16
15 - All Down The Line - 3:48
16 - Stop Breaking Down - 4:33
17 - Shine A Light - 4:14
18 - Soul Survivor - 3:47

EAC-Log, CUE-Sheed & NFO:

Click to open spoiler
Exact Audio Copy V1.3 from 2. September 2016

EAC extraction logfile from 7. March 2017, 17:38

The Rolling Stones / Exile On Main St (CGK 40489)

Used drive : PLEXTOR DVDR PX-891SA Adapter: 1 ID: 0

Read mode : Secure
Utilize accurate stream : Yes
Defeat audio cache : Yes
Make use of C2 pointers : No

Read offset correction : 6
Overread into Lead-In and Lead-Out : No
Fill up missing offset samples with silence : Yes
Delete leading and trailing silent blocks : No
Null samples used in CRC calculations : Yes
Used interface : Native Win32 interface for Win NT & 2000

Used output format : User Defined Encoder
Selected bitrate : 128 kBit/s
Quality : High
Add ID3 tag : No
Command line compressor : C:\Program Files (x86)\Exact Audio Copy\Flac\flac.exe
Additional command line options : -V -8 -T “Genre=%genre%” -T “Artist=%artist%” -T “Title=%title%” -T “Album=%albumtitle%” -T “Date=%year%” -T “Tracknumber=%tracknr%” -T “Comment=%comment%” %source%

TOC of the extracted CD

Track | Start | Length | Start sector | End sector
———————————————————
1 | 0:00.00 | 4:30.35 | 0 | 20284
2 | 4:30.35 | 2:22.42 | 20285 | 30976
3 | 6:53.02 | 2:57.00 | 30977 | 44251
4 | 9:50.02 | 3:31.33 | 44252 | 60109
5 | 13:21.35 | 3:42.52 | 60110 | 76811
6 | 17:04.12 | 4:25.65 | 76812 | 96751
7 | 21:30.02 | 4:16.48 | 96752 | 115999
8 | 25:46.50 | 2:52.15 | 116000 | 128914
9 | 28:38.65 | 4:21.37 | 128915 | 148526
10 | 33:00.27 | 3:02.03 | 148527 | 162179
11 | 36:02.30 | 2:35.20 | 162180 | 173824
12 | 38:37.50 | 3:24.12 | 173825 | 189136
13 | 42:01.62 | 2:51.65 | 189137 | 202026
14 | 44:53.52 | 5:17.10 | 202027 | 225811
15 | 50:10.62 | 3:47.03 | 225812 | 242839
16 | 53:57.65 | 4:34.02 | 242840 | 263391
17 | 58:31.67 | 4:14.38 | 263392 | 282479
18 | 62:46.30 | 3:46.72 | 282480 | 299501

Range status and errors

Selected range

Filename H:\dafnaplus\Rolling Stones – Exile On Main St\The Rolling Stones – Exile On Main St (CGK 40489).wav

Peak level 100.0 %
Extraction speed 8.5 X
Range quality 100.0 %
Test CRC 99905532
Copy CRC 99905532
Copy OK

No errors occurred

AccurateRip summary

Track 1 accurately ripped (confidence 52) [1D82C1BD] (AR v2)
Track 2 accurately ripped (confidence 53) [8A500686] (AR v2)
Track 3 accurately ripped (confidence 54) [8199E634] (AR v2)
Track 4 accurately ripped (confidence 53) [EE23B335] (AR v2)
Track 5 accurately ripped (confidence 54) [35B6437D] (AR v2)
Track 6 accurately ripped (confidence 53) [D726F2C5] (AR v2)
Track 7 accurately ripped (confidence 54) [EE5A8202] (AR v2)
Track 8 accurately ripped (confidence 54) [A6DDBF87] (AR v2)
Track 9 accurately ripped (confidence 53) [7E535F43] (AR v2)
Track 10 accurately ripped (confidence 54) [27F2E214] (AR v2)
Track 11 accurately ripped (confidence 53) [8E441D6D] (AR v2)
Track 12 accurately ripped (confidence 52) [003F0031] (AR v2)
Track 13 accurately ripped (confidence 53) [BC51D6B8] (AR v2)
Track 14 accurately ripped (confidence 53) [05097489] (AR v2)
Track 15 accurately ripped (confidence 53) [9D01F11F] (AR v2)
Track 16 accurately ripped (confidence 52) [0745D5B9] (AR v2)
Track 17 accurately ripped (confidence 54) [594C2BA5] (AR v2)
Track 18 accurately ripped (confidence 49) [F4A25D80] (AR v2)

All tracks accurately ripped

End of status report

—- CUETools DB Plugin V2.1.6

[CTDB TOCID: JNzvlrDCxc6BT0K87uPA4LmpOjE-] found
Submit result: JNzvlrDCxc6BT0K87uPA4LmpOjE- has been confirmed
Track | CTDB Status
1 | (83/83) Accurately ripped
2 | (83/83) Accurately ripped
3 | (83/83) Accurately ripped
4 | (83/83) Accurately ripped
5 | (82/83) Accurately ripped
6 | (82/83) Accurately ripped
7 | (82/83) Accurately ripped
8 | (82/83) Accurately ripped
9 | (83/83) Accurately ripped
10 | (83/83) Accurately ripped
11 | (83/83) Accurately ripped
12 | (83/83) Accurately ripped
13 | (83/83) Accurately ripped
14 | (82/83) Accurately ripped
15 | (83/83) Accurately ripped
16 | (83/83) Accurately ripped
17 | (82/83) Accurately ripped
18 | (78/83) Accurately ripped

==== Log checksum F2DB66F93A582C71296FDA5F742B96E71AB02F43E8976FD385C060F2BCBB02E8 ====

REM GENRE Rock
REM DATE 1987
REM DISCID F20F9912
REM COMMENT “ExactAudioCopy v1.3”
PERFORMER “The Rolling Stones”
TITLE “Exile On Main St (CGK 40489)”
REM COMPOSER “”
FILE “The Rolling Stones – Exile On Main St (CGK 40489).flac” WAVE
TRACK 01 AUDIO
TITLE “Rocks Off”
PERFORMER “The Rolling Stones”
REM COMPOSER “”
INDEX 01 00:00:00
TRACK 02 AUDIO
TITLE “Rip This Joint”
PERFORMER “The Rolling Stones”
REM COMPOSER “”
INDEX 01 04:30:35
TRACK 03 AUDIO
TITLE “Shake Your Hips”
PERFORMER “The Rolling Stones”
REM COMPOSER “”
INDEX 01 06:53:02
TRACK 04 AUDIO
TITLE “Casino Boogie”
PERFORMER “The Rolling Stones”
REM COMPOSER “”
INDEX 01 09:50:02
TRACK 05 AUDIO
TITLE “Tumbling Dice”
PERFORMER “The Rolling Stones”
REM COMPOSER “”
INDEX 01 13:21:35
TRACK 06 AUDIO
TITLE “Sweet Virginia”
PERFORMER “The Rolling Stones”
REM COMPOSER “”
INDEX 01 17:04:12
TRACK 07 AUDIO
TITLE “Torn And Frayed”
PERFORMER “The Rolling Stones”
REM COMPOSER “”
INDEX 00 21:28:22
INDEX 01 21:30:02
TRACK 08 AUDIO
TITLE “Sweet Black Angel”
PERFORMER “The Rolling Stones”
REM COMPOSER “”
INDEX 00 25:45:30
INDEX 01 25:46:50
TRACK 09 AUDIO
TITLE “Loving Cup”
PERFORMER “The Rolling Stones”
REM COMPOSER “”
INDEX 00 28:38:12
INDEX 01 28:38:65
TRACK 10 AUDIO
TITLE “Happy”
PERFORMER “The Rolling Stones”
REM COMPOSER “”
INDEX 01 33:00:27
TRACK 11 AUDIO
TITLE “Turd On The Run”
PERFORMER “The Rolling Stones”
REM COMPOSER “”
INDEX 01 36:02:30
TRACK 12 AUDIO
TITLE “Ventilator Blues”
PERFORMER “The Rolling Stones”
REM COMPOSER “”
INDEX 01 38:37:50
TRACK 13 AUDIO
TITLE “I Just Want To See His Face”
PERFORMER “The Rolling Stones”
REM COMPOSER “”
INDEX 01 42:01:62
TRACK 14 AUDIO
TITLE “Let It Loose”
PERFORMER “The Rolling Stones”
REM COMPOSER “”
INDEX 01 44:53:52
TRACK 15 AUDIO
TITLE “All Down The Line”
PERFORMER “The Rolling Stones”
REM COMPOSER “”
INDEX 00 50:10:00
INDEX 01 50:10:62
TRACK 16 AUDIO
TITLE “Stop Breaking Down”
PERFORMER “The Rolling Stones”
REM COMPOSER “”
INDEX 01 53:57:65
TRACK 17 AUDIO
TITLE “Shine A Light”
PERFORMER “The Rolling Stones”
REM COMPOSER “”
INDEX 01 58:31:67
TRACK 18 AUDIO
TITLE “Soul Survivor”
PERFORMER “The Rolling Stones”
REM COMPOSER “”
INDEX 01 62:46:30


Leave a Reply

Your email address will not be published. Required fields are marked *

Enter the text from the image below
 

This site uses Akismet to reduce spam. Learn how your comment data is processed.