The Rolling Stones – Emotional Rescue




Artist: The Rolling Stones
Year: 1980
Genre: Rock
Notes: Discogs
Add. Notes:
Cover incl.: Yes
Encoder: FLAC
Bitrate: ~900 kBit/s (44.1 kHz/16 Bit/s)
Log & Cue incl.: Yes
Size: 305,12 MB
Password: “slam” (without ” “)


All Downloads/Hosters are compatible

Download 1
Turbobit.net
KatFile.com
Rapidgator.net
Download 2
Turbobit.net
KatFile.com
Rapidgator.net

Tracklist:

1. Dance (Pt. 1) (4:23)
2. Summer Romance (3:16)
3. Send It To Me (3:43)
4. Let Me Go (3:50)
5. Indian Girl (4:23)
6. Where The Boys Go (3:29)
7. Down In The Hole (3:57)
8. Emotional Rescue (5:40)
9. She's So Cold (4:12)
10. All About You (4:19)

EAC-Log, CUE-Sheed & NFO:

Click to open spoiler
Exact Audio Copy V1.0 beta 3 from 29. August 2011

EAC extraction logfile from 11. March 2013, 14:25

The Rolling Stones / Emotional Rescue [CDV2737]

Used drive : HL-DT-STDVD+-RW GH50N Adapter: 0 ID: 1

Read mode : Secure
Utilize accurate stream : Yes
Defeat audio cache : Yes
Make use of C2 pointers : No

Read offset correction : 667
Overread into Lead-In and Lead-Out : No
Fill up missing offset samples with silence : Yes
Delete leading and trailing silent blocks : No
Null samples used in CRC calculations : Yes
Used interface : Native Win32 interface for Win NT & 2000

Used output format : User Defined Encoder
Selected bitrate : 768 kBit/s
Quality : High
Add ID3 tag : No
Command line compressor : C:\Program Files (x86)\Exact Audio Copy\FLAC\FLAC.EXE
Additional command line options : -V -8 -T “Date=%year%” -T “Genre=%genre%” %source%

TOC of the extracted CD

Track | Start | Length | Start sector | End sector
———————————————————
1 | 0:00.00 | 4:23.17 | 0 | 19741
2 | 4:23.17 | 3:16.00 | 19742 | 34441
3 | 7:39.17 | 3:43.00 | 34442 | 51166
4 | 11:22.17 | 3:51.58 | 51167 | 68549
5 | 15:14.00 | 4:23.37 | 68550 | 88311
6 | 19:37.37 | 3:29.13 | 88312 | 103999
7 | 23:06.50 | 3:58.00 | 104000 | 121849
8 | 27:04.50 | 5:39.35 | 121850 | 147309
9 | 32:44.10 | 4:13.45 | 147310 | 166329
10 | 36:57.55 | 4:18.20 | 166330 | 185699

Range status and errors

Selected range

Filename C:\222\Virgin\1980 – Emotional Resque [CDV2737]\The Rolling Stones – Emotional Rescue [CDV2737].wav

Peak level 99.4 %
Extraction speed 3.0 X
Range quality 100.0 %
Test CRC F09EFFE0
Copy CRC F09EFFE0
Copy OK

No errors occurred

AccurateRip summary

Track 1 accurately ripped (confidence 5) [99F72583] (AR v2)
Track 2 accurately ripped (confidence 5) [397F359F] (AR v2)
Track 3 accurately ripped (confidence 5) [169E37D2] (AR v2)
Track 4 accurately ripped (confidence 5) [C9B3C0F3] (AR v2)
Track 5 accurately ripped (confidence 5) [2ACDCA8C] (AR v2)
Track 6 accurately ripped (confidence 5) [99E889D4] (AR v2)
Track 7 accurately ripped (confidence 5) [272D042B] (AR v2)
Track 8 accurately ripped (confidence 4) [4A61DAC4] (AR v2)
Track 9 accurately ripped (confidence 6) [1720D551] (AR v2)
Track 10 accurately ripped (confidence 6) [AD022F59] (AR v2)

All tracks accurately ripped

End of status report

==== Log checksum E7E5ED4E3CD5E2430F2288F867834B89CD60540BC65D7BEF720892D206B14E10 ====

REM GENRE Rock
REM DATE 1980
REM DISCID 9509AC0A
REM COMMENT “ExactAudioCopy v1.0b3”
PERFORMER “The Rolling Stones”
TITLE “Emotional Rescue [CDV2737]”
FILE “The Rolling Stones – Emotional Rescue [CDV2737].flac” WAVE
TRACK 01 AUDIO
TITLE “Dance (Pt. 1)”
PERFORMER “The Rolling Stones”
INDEX 01 00:00:00
TRACK 02 AUDIO
TITLE “Summer Romance”
PERFORMER “The Rolling Stones”
INDEX 00 04:23:15
INDEX 01 04:23:17
TRACK 03 AUDIO
TITLE “Send It To Me”
PERFORMER “The Rolling Stones”
INDEX 00 07:39:15
INDEX 01 07:39:17
TRACK 04 AUDIO
TITLE “Let Me Go”
PERFORMER “The Rolling Stones”
INDEX 00 11:22:15
INDEX 01 11:22:17
TRACK 05 AUDIO
TITLE “Indian Girl”
PERFORMER “The Rolling Stones”
INDEX 00 15:12:07
INDEX 01 15:14:00
TRACK 06 AUDIO
TITLE “Where The Boys Go”
PERFORMER “The Rolling Stones”
INDEX 00 19:37:20
INDEX 01 19:37:37
TRACK 07 AUDIO
TITLE “Down In The Hole”
PERFORMER “The Rolling Stones”
INDEX 00 23:06:47
INDEX 01 23:06:50
TRACK 08 AUDIO
TITLE “Emotional Rescue”
PERFORMER “The Rolling Stones”
INDEX 00 27:03:52
INDEX 01 27:04:50
TRACK 09 AUDIO
TITLE “She’s So Cold”
PERFORMER “The Rolling Stones”
INDEX 00 32:44:02
INDEX 01 32:44:10
TRACK 10 AUDIO
TITLE “All About You”
PERFORMER “The Rolling Stones”
INDEX 00 36:56:55
INDEX 01 36:57:55


Leave a Reply

Your email address will not be published. Required fields are marked *

Enter the text from the image below
 

This site uses Akismet to reduce spam. Learn how your comment data is processed.