The Rolling Stones – Dirty Work (Remastered)




[Total: 0    Average: 0/5]

Artist: The Rolling Stones
Year: 1986/2009
Genre: Rock
Notes: Discogs
Add. Notes: Remastered
Cover incl.: Yes
Encoder: FLAC
Bitrate: ~1000 kBit/s (44.1 kHz/16 Bit/s)
Log & Cue incl.: Yes
Size: 317 MB
Password: “slam” (without ” “)


All Downloads/Hosters are compatible

Download 1
Share-online.biz
KatFile.com
Rapidgator.net
Mexa.sh
Download 2
Share-online.biz
KatFile.com
Rapidgator.net
Mexa.sh

Tracklist:

1 - One Hit (To The Body) - 4:44
2 - Fight - 3:09
3 - Harlem Shuffle - 3:23
4 - Hold Back - 3:53
5 - Too Rude - 3:11
6 - Winning Ugly - 4:32
7 - Back To Zero - 4:00
8 - Dirty Work - 3:53
9 - Had It With You - 3:18
10 - Sleep Tonight - 5:10

EAC-Log, CUE-Sheed & NFO:

Click to open spoiler
Exact Audio Copy V1.0 beta 3 from 29. August 2011

Отчёт EAC об извлечении, выполненном 11. мая 2015, 19:19

The Rolling Stones / Dirty Work

Дисковод: ATAPI iHES108 2 Adapter: 3 ID: 1

Режим чтения : Достоверность
Использование точного потока : Да
Отключение кэша аудио : Да
Использование указателей C2 : Нет

Коррекция смещения при чтении : 6
Способность читать области Lead-in и Lead-out : Нет
Заполнение пропущенных сэмплов тишиной : Да
Удаление блоков с тишиной в начале и конце : Нет
При вычислениях CRC использовались нулевые сэмплы : Да
Интерфейс : Встроенный Win32-интерфейс для Win NT/2000

Выходной формат : Пользовательский кодировщик
Выбранный битрейт : 1024 kBit/s
Качество : Высокий
Добавление ID3-тега : Нет
Утилита сжатия : C:\Program Files\Exact Audio Copy\Flac\flac.exe
Дополнительные параметры : -V -8 -T “Date=%year%” -T “Genre=%genre%” %source%

TOC извлечённого CD

Трек | Старт | Длительность | Начальный сектор | Конечный сектор
———————————————————————
1 | 0:00.00 | 4:44.47 | 0 | 21346
2 | 4:44.47 | 3:10.18 | 21347 | 35614
3 | 7:54.65 | 3:25.67 | 35615 | 51056
4 | 11:20.57 | 3:52.73 | 51057 | 68529
5 | 15:13.55 | 3:13.00 | 68530 | 83004
6 | 18:26.55 | 4:32.70 | 83005 | 103474
7 | 22:59.50 | 4:00.57 | 103475 | 121531
8 | 27:00.32 | 3:53.45 | 121532 | 139051
9 | 30:54.02 | 3:20.20 | 139052 | 154071
10 | 34:14.22 | 5:13.58 | 154072 | 177604
11 | 39:28.05 | 0:33.35 | 177605 | 180114

Характеристики диапазона извлечения и сообщения об ошибках

Выбранный диапазон

Имя файла D:\EAC-FOLDER\!!!RS_2009\Rolling Stones – Dirty Work\The Rolling Stones – Dirty Work_2009\The Rolling Stones – Dirty Work.wav

Пиковый уровень 98.7 %
Скорость извлечения 4.7 X
Качество диапазона 100.0 %
CRC теста 3DB104ED
CRC копии 3DB104ED
Копирование… OK

Ошибок не произошло

AccurateRip: сводка

Трек 1 : извлечено точно (доверие 71) [F96F7808] (AR v2)
Трек 2 : извлечено точно (доверие 71) [08678A3E] (AR v2)
Трек 3 : извлечено точно (доверие 71) [F6C1AD6E] (AR v2)
Трек 4 : извлечено точно (доверие 71) [83290E7B] (AR v2)
Трек 5 : извлечено точно (доверие 71) [6F51FEAA] (AR v2)
Трек 6 : извлечено точно (доверие 71) [C13A2096] (AR v2)
Трек 7 : извлечено точно (доверие 71) [3D9675B7] (AR v2)
Трек 8 : извлечено точно (доверие 71) [49E9E7A5] (AR v2)
Трек 9 : извлечено точно (доверие 71) [8A2AE4D8] (AR v2)
Трек 10 : извлечено точно (доверие 71) [67EC826C] (AR v2)
Трек 11 : извлечено точно (доверие 71) [6BE8A961] (AR v2)

Все треки извлечены точно

Конец отчёта

==== Контрольная сумма отчёта 3D48193DCC57CC8ABF07D11EBBC53F6A20ADD7D55416D7FDCCE1BDAA5C4A439D ====

REM GENRE Rock
REM DATE 1986
REM DISCID 9109610B
REM COMMENT “ExactAudioCopy v1.0b3”
CATALOG 0602527015644
PERFORMER “The Rolling Stones”
TITLE “Dirty Work”
FILE “The Rolling Stones – Dirty Work.flac” WAVE
TRACK 01 AUDIO
TITLE “One Hit (To the Body)”
PERFORMER “The Rolling Stones”
ISRC TbCJN8600001
INDEX 01 00:00:00
TRACK 02 AUDIO
TITLE “Fight”
PERFORMER “The Rolling Stones”
ISRC TbCJN8600002
INDEX 00 04:43:67
INDEX 01 04:44:47
TRACK 03 AUDIO
TITLE “Harlem Shuffle”
PERFORMER “The Rolling Stones”
ISRC TbCJN8600003
INDEX 00 07:53:37
INDEX 01 07:54:65
TRACK 04 AUDIO
TITLE “Hold Back”
PERFORMER “The Rolling Stones”
ISRC TbCJN8600004
INDEX 00 11:19:22
INDEX 01 11:20:57
TRACK 05 AUDIO
TITLE “Too Rude”
PERFORMER “The Rolling Stones”
ISRC TbCJN8600005
INDEX 01 15:13:55
TRACK 06 AUDIO
TITLE “Winning Ugly”
PERFORMER “The Rolling Stones”
ISRC TbCJN8600006
INDEX 00 18:24:27
INDEX 01 18:26:55
TRACK 07 AUDIO
TITLE “Back to Zero”
PERFORMER “The Rolling Stones”
ISRC TbCJN8600007
INDEX 00 22:58:30
INDEX 01 22:59:50
TRACK 08 AUDIO
TITLE “Dirty Work”
PERFORMER “The Rolling Stones”
ISRC TbCJN8600008
INDEX 00 26:59:17
INDEX 01 27:00:32
TRACK 09 AUDIO
TITLE “Had It with You”
PERFORMER “The Rolling Stones”
ISRC TbCJN8600009
INDEX 00 30:53:22
INDEX 01 30:54:02
TRACK 10 AUDIO
TITLE “Sleep Tonight”
PERFORMER “The Rolling Stones”
ISRC TbCJN8600010
INDEX 00 34:12:22
INDEX 01 34:14:22
TRACK 11 AUDIO
TITLE “Key to the Highway”
PERFORMER “The Rolling Stones”
ISRC TbCJN9400035
INDEX 00 39:25:00
INDEX 01 39:28:05


Spread the Download

Leave a Reply

Your email address will not be published. Required fields are marked *

Enter the text from the image below
 

This site uses Akismet to reduce spam. Learn how your comment data is processed.