The Rolling Stones – Dirty Work (Japanese Edition)




No Cover available

Artist: The Rolling Stones
Year: 1986/2014
Genre: Rock
Notes: Discogs
Add. Notes: Japanese Edition
Watch Songs on: YouTube
Cover incl.: Yes
Encoder: FLAC
Bitrate: ~900 kBit/s (44.1 kHz/16 Bit/s)
Log & Cue incl.: Yes/Yes
Size: 539 MB
Password: “slam” (without ” “)


All Downloads/Hosters are compatible

Download 1
KatFile.com
Turbobit.net
FileFactory.com
Rapidgator.net
Download 2
KatFile.com
Turbobit.net
FileFactory.com
Rapidgator.net

Tracklist:

1 One Hit (To The Body) 4:46
2 Fight 3:10
3 Harlem Shuffle 3:26
4 Hold Back 3:53
5 Too Rude 3:13
6 Winning Ugly 4:33
7 Back To Zero 4:01
8 Dirty Work 3:54
9 Had It With You 3:20
10 Sleep Tonight 5:13
11 Untitled 0:33

EAC-Log, CUE-Sheed & NFO:

Click to open spoiler
Exact Audio Copy V1.0 beta 3 from 29. August 2011

EAC extraction logfile from 26. September 2014, 13:36

The Rolling Stones / Dirty Work PT-SHM

Used drive : PLEXTOR BD-R PX-B950SA Adapter: 6 ID: 0

Read mode : Secure
Utilize accurate stream : Yes
Defeat audio cache : Yes
Make use of C2 pointers : No

Read offset correction : 6
Overread into Lead-In and Lead-Out : No
Fill up missing offset samples with silence : Yes
Delete leading and trailing silent blocks : No
Null samples used in CRC calculations : Yes
Used interface : Native Win32 interface for Win NT & 2000

Used output format : Internal WAV Routines
Sample format : 44.100 Hz; 16 Bit; Stereo

TOC of the extracted CD

Track | Start | Length | Start sector | End sector
———————————————————
1 | 0:00.00 | 4:45.58 | 0 | 21432
2 | 4:45.58 | 3:10.37 | 21433 | 35719
3 | 7:56.20 | 3:26.10 | 35720 | 51179
4 | 11:22.30 | 3:53.18 | 51180 | 68672
5 | 15:15.48 | 3:13.07 | 68673 | 83154
6 | 18:28.55 | 4:33.13 | 83155 | 103642
7 | 23:01.68 | 4:00.57 | 103643 | 121699
8 | 27:02.50 | 3:53.63 | 121700 | 139237
9 | 30:56.38 | 3:20.37 | 139238 | 154274
10 | 34:17.00 | 5:13.25 | 154275 | 177774
11 | 39:30.25 | 0:33.23 | 177775 | 180272

Range status and errors

Selected range

Filename C:\Users\Meijin\Desktop\Lossless Galaxy ALLexxess\Rolling Stones\1986 Dirty Work (Mini LP PT-SHM Universal Japan 2014)\The Rolling Stones – Dirty Work PT-SHM.wav

Peak level 96.4 %
Extraction speed 6.7 X
Range quality 100.0 %
Test CRC B6999DEB
Copy CRC B6999DEB
Copy OK

No errors occurred

AccurateRip summary

Track 1 accurately ripped (confidence 1) [8C93FE27] (AR v2)
Track 2 accurately ripped (confidence 1) [B6C81397] (AR v2)
Track 3 accurately ripped (confidence 1) [0F48E2C9] (AR v2)
Track 4 accurately ripped (confidence 1) [3C46B518] (AR v2)
Track 5 accurately ripped (confidence 1) [CA234CE4] (AR v2)
Track 6 accurately ripped (confidence 1) [7401C544] (AR v2)
Track 7 accurately ripped (confidence 1) [2F09BED1] (AR v2)
Track 8 accurately ripped (confidence 1) [43C806C2] (AR v2)
Track 9 accurately ripped (confidence 1) [069A5C72] (AR v2)
Track 10 accurately ripped (confidence 1) [37AF2440] (AR v2)
Track 11 accurately ripped (confidence 1) [BD95E7A0] (AR v2)

All tracks accurately ripped

End of status report

==== Log checksum F12A30227E693BA40395CF6AA91F7263178706F69A366627EC482F2FEA90B5B9 ====

REM GENRE Rock
REM DATE 1986
REM DISCID 9C09630B
REM COMMENT “ExactAudioCopy v1.0b3”
PERFORMER “The Rolling Stones”
TITLE “Dirty Work PT-SHM”
FILE “The Rolling Stones – Dirty Work PT-SHM.flac” WAVE
TRACK 01 AUDIO
TITLE “One Hit (To The Body)”
PERFORMER “The Rolling Stones”
INDEX 01 00:00:00
TRACK 02 AUDIO
TITLE “Fight”
PERFORMER “The Rolling Stones”
INDEX 00 04:44:36
INDEX 01 04:45:58
TRACK 03 AUDIO
TITLE “Harlem Shuffle”
PERFORMER “The Rolling Stones”
INDEX 00 07:54:56
INDEX 01 07:56:20
TRACK 04 AUDIO
TITLE “Hold Back”
PERFORMER “The Rolling Stones”
INDEX 00 11:20:34
INDEX 01 11:22:30
TRACK 05 AUDIO
TITLE “Too Rude”
PERFORMER “The Rolling Stones”
INDEX 01 15:15:48
TRACK 06 AUDIO
TITLE “Winning Ugly”
PERFORMER “The Rolling Stones”
INDEX 00 18:27:29
INDEX 01 18:28:55
TRACK 07 AUDIO
TITLE “Back To Zero”
PERFORMER “The Rolling Stones”
INDEX 00 23:00:34
INDEX 01 23:01:68
TRACK 08 AUDIO
TITLE “Dirty Work”
PERFORMER “The Rolling Stones”
INDEX 00 27:00:46
INDEX 01 27:02:50
TRACK 09 AUDIO
TITLE “Had It With You”
PERFORMER “The Rolling Stones”
INDEX 00 30:55:36
INDEX 01 30:56:38
TRACK 10 AUDIO
TITLE “Sleep Tonight”
PERFORMER “The Rolling Stones”
INDEX 00 34:14:49
INDEX 01 34:17:00
TRACK 11 AUDIO
TITLE “Untitled Hidden Track (uncredited excerpt from ‘Key To The Highway’)”
PERFORMER “The Rolling Stones”
INDEX 00 39:26:74
INDEX 01 39:30:25


Leave a Reply

Your email address will not be published. Required fields are marked *

Enter the text from the image below
 

This site uses Akismet to reduce spam. Learn how your comment data is processed.