The Rolling Stones – Demos & Outtakes 1963-1966




Artist: The Rolling Stones
Year: 2019
Genre: Rock
Notes: Discogs
Add. Notes:
Cover incl.: Yes
Encoder: FLAC
Bitrate: ~800 kBit/s (44.1 kHz/16 Bit/s)
Log & Cue incl.: Yes
Size: 713,37 MB
Password: “slam” (without ” “)


All Downloads/Hosters are compatible

Download 1
Turbobit.net
Rapidgator.net
KatFile.com
UploadRar.com
Download 2
Turbobit.net
Rapidgator.net
KatFile.com
UploadRar.com

Tracklist:

1-1 - Fortune Teller (Take 1) - 2:13
1-2 - Go Home Girl - 2:20
1-3 - It Should Be You - 1:37
1-4 - Leave Me Alone - 2:48
1-5 - My Only Girl - 1:59
1-6 - Not Fade Away - 1:48
1-7 - Andrew's Blues - 3:00
1-8 - Mr. Spector & Mr. Pitney Came Too - 2:44
1-9 - As Time Goes By - 2:12
1-10 - Ain't That Loving You Baby - 1:52
1-11 - Don't Lie To Me - 1:58
1-12 - Stewed & Keefed (Brian's Blues) - 4:04
1-13 - Hi-Heel Sneakers - 2:55
1-14 - Down In The Bottom - 2:40
1-15 - Reelin' & Rockin' - 3:33
1-16 - Tell Me, Baby (How Many Times) - 1:52
1-17 - Time Is On My Side - 2:50
1-18 - Try A Little Harder - 2:20
1-19 - Some Things Stick In Your Mind - 2:23
1-20 - Heart Of Stone - 3:41
1-21 - Blue Turns To Grey - 2:36
1-22 - We're Wasting Time - 2:44

2-1 - (Walking Through) The Sleepy City - 2:49
2-2 - Each And Every Day Of The Year - 2:43
2-3 - We Were Falling In Love - 1:59
2-4 - Susie Q - 1:49
2-5 - Everybody Needs Somebody To Love - 2:53
2-6 - Goodbye Girl - 2:05
2-7 - Mercy, Mercy - 2:40
2-8 - Key To The Highway - 3:16
2-9 - I'd Much Rather Be With The Boys - 2:07
2-10 - I've Been Loving You Too Long - 2:53
2-11 - Looking Tired - 2:13
2-12 - 19th Nervous Breakdown - 3:48
2-13 - Con Le Mie Lacrime (As Tears Go By) - 2:54
2-14 - Out Of Time - 3:18
2-15 - Have You Seen Your Mother Baby Standing In The 
Shadows? - 2:27
2-16 - Get Yourself Together - 2:44
2-17 - Have You Seen Your Mother Baby Standing In The 
Shadows? - 2:26
2-18 - If You Let Me - 3:14
2-19 - Yesterday's Papers - 2:03
2-20 - Sometimes Happy, Sometimes Blue - 1:59
2-21 - Get Yourself Together - 3:06

EAC-Log, CUE-Sheed & NFO:

Click to open spoiler
Exact Audio Copy V1.0 beta 6 from 9. April 2015

EAC extraction logfile from 30. April 2019, 9:58

The Rolling Stones / Demos & Outtakes 1963-1966 [Disc One]

Used drive : ATAPI iHAS122 C Adapter: 1 ID: 0

Read mode : Secure
Utilize accurate stream : Yes
Defeat audio cache : Yes
Make use of C2 pointers : No

Read offset correction : 6
Overread into Lead-In and Lead-Out : No
Fill up missing offset samples with silence : Yes
Delete leading and trailing silent blocks : No
Null samples used in CRC calculations : Yes
Used interface : Native Win32 interface for Win NT & 2000

Used output format : Internal WAV Routines
Sample format : 44.100 Hz; 16 Bit; Stereo

TOC of the extracted CD

Track | Start | Length | Start sector | End sector
———————————————————
1 | 0:00.00 | 2:15.58 | 0 | 10182
2 | 2:15.58 | 2:22.46 | 10183 | 20878
3 | 4:38.29 | 1:39.73 | 20879 | 28376
4 | 6:18.27 | 1:50.40 | 28377 | 36666
5 | 8:08.67 | 2:01.03 | 36667 | 45744
6 | 10:09.70 | 1:50.04 | 45745 | 53998
7 | 11:59.74 | 3:02.43 | 53999 | 67691
8 | 15:02.42 | 2:46.33 | 67692 | 80174
9 | 17:49.00 | 2:14.10 | 80175 | 90234
10 | 20:03.10 | 1:54.64 | 90235 | 98848
11 | 21:57.74 | 2:00.37 | 98849 | 107885
12 | 23:58.36 | 4:06.72 | 107886 | 126407
13 | 28:05.33 | 3:01.38 | 126408 | 140020
14 | 31:06.71 | 2:46.13 | 140021 | 152483
15 | 33:53.09 | 3:39.73 | 152484 | 168981
16 | 37:33.07 | 1:53.67 | 168982 | 177523
17 | 39:26.74 | 2:52.71 | 177524 | 190494
18 | 42:19.70 | 2:22.71 | 190495 | 201215
19 | 44:42.66 | 2:25.29 | 201216 | 212119
20 | 47:08.20 | 3:43.40 | 212120 | 228884
21 | 50:51.60 | 2:38.55 | 228885 | 240789
22 | 53:30.40 | 2:43.24 | 240790 | 253038

Range status and errors

Selected range

Filename C:\Users\London\Desktop\The Rolling Stones – Demos & Outtakes 1963-1966 [Disc One].wav

Peak level 96.6 %
Extraction speed 4.5 X
Range quality 100.0 %
Test CRC 4B34D96B
Copy CRC 4B34D96B
Copy OK

No errors occurred

AccurateRip summary

Track 1 not present in database
Track 2 not present in database
Track 3 not present in database
Track 4 not present in database
Track 5 not present in database
Track 6 not present in database
Track 7 not present in database
Track 8 not present in database
Track 9 not present in database
Track 10 not present in database
Track 11 not present in database
Track 12 not present in database
Track 13 not present in database
Track 14 not present in database
Track 15 not present in database
Track 16 not present in database
Track 17 not present in database
Track 18 not present in database
Track 19 not present in database
Track 20 not present in database
Track 21 not present in database
Track 22 not present in database

None of the tracks are present in the AccurateRip database

End of status report

—- CUETools DB Plugin V2.1.6

[CTDB TOCID: GQi85Gh3K.AnJwpSB.IHXbprEHo-] disk not present in database
Submit result: GQi85Gh3K.AnJwpSB.IHXbprEHo- has been uploaded

==== Log checksum AECF002998EB43B41D20CED20957EB0A85399ABAE2940A5BD7BAFB60AA69D6E1 ====

Exact Audio Copy V1.0 beta 6 from 9. April 2015

EAC extraction logfile from 4. May 2019, 8:48

The Rolling Stones / Demos & Outtakes 1963-1966 [Disc Two]

Used drive : ATAPI iHAS122 C Adapter: 1 ID: 0

Read mode : Secure
Utilize accurate stream : Yes
Defeat audio cache : Yes
Make use of C2 pointers : No

Read offset correction : 6
Overread into Lead-In and Lead-Out : No
Fill up missing offset samples with silence : Yes
Delete leading and trailing silent blocks : No
Null samples used in CRC calculations : Yes
Used interface : Native Win32 interface for Win NT & 2000

Used output format : Internal WAV Routines
Sample format : 44.100 Hz; 16 Bit; Stereo

TOC of the extracted CD

Track | Start | Length | Start sector | End sector
———————————————————
1 | 0:00.00 | 2:51.66 | 0 | 12890
2 | 2:51.66 | 2:45.70 | 12891 | 25335
3 | 5:37.61 | 2:01.18 | 25336 | 34428
4 | 7:39.04 | 1:51.17 | 34429 | 42770
5 | 9:30.21 | 2:55.56 | 42771 | 55951
6 | 12:26.02 | 2:07.37 | 55952 | 65513
7 | 14:33.39 | 2:41.58 | 65514 | 77646
8 | 17:15.22 | 3:18.01 | 77647 | 92497
9 | 20:33.23 | 2:08.72 | 92498 | 102169
10 | 22:42.20 | 2:55.43 | 102170 | 115337
11 | 25:37.63 | 2:15.28 | 115338 | 125490
12 | 27:53.16 | 3:50.36 | 125491 | 142776
13 | 31:43.52 | 2:56.40 | 142777 | 156016
14 | 34:40.17 | 3:20.35 | 156017 | 171051
15 | 38:00.52 | 2:29.69 | 171052 | 182295
16 | 40:30.46 | 2:46.62 | 182296 | 194807
17 | 43:17.33 | 2:27.74 | 194808 | 205906
18 | 45:45.32 | 3:15.56 | 205907 | 220587
19 | 49:01.13 | 2:04.72 | 220588 | 229959
20 | 51:06.10 | 2:04.38 | 229960 | 239297
21 | 53:10.48 | 3:05.47 | 239298 | 253219

Range status and errors

Selected range

Filename C:\Users\London\Desktop\The Rolling Stones – Demos & Outtakes 1963-1966 [Disc Two].wav

Peak level 96.6 %
Extraction speed 3.2 X
Range quality 100.0 %
Test CRC 6A160F61
Copy CRC 6A160F61
Copy OK

No errors occurred

AccurateRip summary

Track 1 not present in database
Track 2 not present in database
Track 3 not present in database
Track 4 not present in database
Track 5 not present in database
Track 6 not present in database
Track 7 not present in database
Track 8 not present in database
Track 9 not present in database
Track 10 not present in database
Track 11 not present in database
Track 12 not present in database
Track 13 not present in database
Track 14 not present in database
Track 15 not present in database
Track 16 not present in database
Track 17 not present in database
Track 18 not present in database
Track 19 not present in database
Track 20 not present in database
Track 21 not present in database

None of the tracks are present in the AccurateRip database

End of status report

—- CUETools DB Plugin V2.1.6

[CTDB TOCID: WoN1rlElPWNHzZ5MEy.QvmRwSXA-] found
Submit result: already submitted
Track | CTDB Status
1 | (1/1) Accurately ripped
2 | (1/1) Accurately ripped
3 | (1/1) Accurately ripped
4 | (1/1) Accurately ripped
5 | (1/1) Accurately ripped
6 | (1/1) Accurately ripped
7 | (1/1) Accurately ripped
8 | (1/1) Accurately ripped
9 | (1/1) Accurately ripped
10 | (1/1) Accurately ripped
11 | (1/1) Accurately ripped
12 | (1/1) Accurately ripped
13 | (1/1) Accurately ripped
14 | (1/1) Accurately ripped
15 | (1/1) Accurately ripped
16 | (1/1) Accurately ripped
17 | (1/1) Accurately ripped
18 | (1/1) Accurately ripped
19 | (1/1) Accurately ripped
20 | (1/1) Accurately ripped
21 | (1/1) Accurately ripped

==== Log checksum 763C99E1FBE313CCD7626EAB85B99FABE9C0FD359F49B7E213BD65B04C30EFD0 ====

REM GENRE Rock
REM DATE 2019
REM DISCID 0F0D2D16
REM COMMENT “ExactAudioCopy v1.0b6”
PERFORMER “The Rolling Stones”
TITLE “Demos & Outtakes 1963-1966 [Disc One]”
FILE “The Rolling Stones – Demos & Outtakes 1963-1966 [Disc One].flac” WAVE
TRACK 01 AUDIO
TITLE “Fortune Teller”
PERFORMER “The Rolling Stones”
INDEX 01 00:00:00
TRACK 02 AUDIO
TITLE “Go Home Girl”
PERFORMER “The Rolling Stones”
INDEX 00 02:13:46
INDEX 01 02:15:58
TRACK 03 AUDIO
TITLE “It Should Be You”
PERFORMER “The Rolling Stones”
INDEX 00 04:36:29
INDEX 01 04:38:29
TRACK 04 AUDIO
TITLE “Leave Me Alone”
PERFORMER “The Rolling Stones”
INDEX 00 06:16:27
INDEX 01 06:18:27
TRACK 05 AUDIO
TITLE “My Only Girl”
PERFORMER “The Rolling Stones”
INDEX 00 08:06:67
INDEX 01 08:08:67
TRACK 06 AUDIO
TITLE “Not Fade Away”
PERFORMER “The Rolling Stones”
INDEX 00 10:07:70
INDEX 01 10:09:70
TRACK 07 AUDIO
TITLE “Andrew’s Blues”
PERFORMER “The Rolling Stones”
INDEX 00 11:57:74
INDEX 01 11:59:74
TRACK 08 AUDIO
TITLE “Mr Spector & Mr Pitney Came Too”
PERFORMER “The Rolling Stones”
INDEX 00 15:00:42
INDEX 01 15:02:42
TRACK 09 AUDIO
TITLE “As Time Goes By”
PERFORMER “The Rolling Stones”
INDEX 00 17:47:00
INDEX 01 17:49:00
TRACK 10 AUDIO
TITLE “Ain’t That Loving You Baby”
PERFORMER “The Rolling Stones”
INDEX 00 20:01:10
INDEX 01 20:03:10
TRACK 11 AUDIO
TITLE “Don’t Lie To Me”
PERFORMER “The Rolling Stones”
INDEX 00 21:55:74
INDEX 01 21:57:74
TRACK 12 AUDIO
TITLE “Stewed & Keefed”
PERFORMER “The Rolling Stones”
INDEX 00 23:56:36
INDEX 01 23:58:36
TRACK 13 AUDIO
TITLE “High Heel Sneakers”
PERFORMER “The Rolling Stones”
INDEX 00 28:03:33
INDEX 01 28:05:33
TRACK 14 AUDIO
TITLE “Down In The Bottom”
PERFORMER “The Rolling Stones”
INDEX 00 31:04:71
INDEX 01 31:06:71
TRACK 15 AUDIO
TITLE “Reelin’ & Rockin'”
PERFORMER “The Rolling Stones”
INDEX 00 33:51:09
INDEX 01 33:53:09
TRACK 16 AUDIO
TITLE “Tell Me Baby”
PERFORMER “The Rolling Stones”
INDEX 00 37:31:07
INDEX 01 37:33:07
TRACK 17 AUDIO
TITLE “Time Is On My Side”
PERFORMER “The Rolling Stones”
INDEX 00 39:24:74
INDEX 01 39:26:74
TRACK 18 AUDIO
TITLE “Try A Little Harder”
PERFORMER “The Rolling Stones”
INDEX 00 42:17:70
INDEX 01 42:19:70
TRACK 19 AUDIO
TITLE “Some Things Stick In Your Mind”
PERFORMER “The Rolling Stones”
INDEX 00 44:40:66
INDEX 01 44:42:66
TRACK 20 AUDIO
TITLE “Heart Of Stone”
PERFORMER “The Rolling Stones”
INDEX 00 47:06:20
INDEX 01 47:08:20
TRACK 21 AUDIO
TITLE “Blue Turns To Grey”
PERFORMER “The Rolling Stones”
INDEX 00 50:49:60
INDEX 01 50:51:60
TRACK 22 AUDIO
TITLE “We’re Wasting Time”
PERFORMER “The Rolling Stones”
INDEX 00 53:28:40
INDEX 01 53:30:40

REM GENRE Rock
REM DATE 2019
REM DISCID 390D3015
REM COMMENT “ExactAudioCopy v1.0b6”
PERFORMER “The Rolling Stones”
TITLE “Demos & Outtakes 1963-1966 [Disc Two]”
FILE “The Rolling Stones – Demos & Outtakes 1963-1966 [Disc Two].flac” WAVE
TRACK 01 AUDIO
TITLE “(Walk Thru) The Sleepy City”
PERFORMER “The Rolling Stones”
INDEX 01 00:00:00
TRACK 02 AUDIO
TITLE “Each And Every Day Of The Year”
PERFORMER “The Rolling Stones”
INDEX 00 02:49:66
INDEX 01 02:51:66
TRACK 03 AUDIO
TITLE “We Were Falling In Love”
PERFORMER “The Rolling Stones”
INDEX 00 05:35:61
INDEX 01 05:37:61
TRACK 04 AUDIO
TITLE “Susie Q”
PERFORMER “The Rolling Stones”
INDEX 00 07:37:04
INDEX 01 07:39:04
TRACK 05 AUDIO
TITLE “Everybody Needs Somebody To Love”
PERFORMER “The Rolling Stones”
INDEX 00 09:28:21
INDEX 01 09:30:21
TRACK 06 AUDIO
TITLE “Goodbye Girl”
PERFORMER “The Rolling Stones”
INDEX 00 12:24:02
INDEX 01 12:26:02
TRACK 07 AUDIO
TITLE “Mercy, Mercy”
PERFORMER “The Rolling Stones”
INDEX 00 14:31:39
INDEX 01 14:33:39
TRACK 08 AUDIO
TITLE “Key To The Highway”
PERFORMER “The Rolling Stones”
INDEX 00 17:13:22
INDEX 01 17:15:22
TRACK 09 AUDIO
TITLE “I’d Much Rather Be With The Boys”
PERFORMER “The Rolling Stones”
INDEX 00 20:31:23
INDEX 01 20:33:23
TRACK 10 AUDIO
TITLE “I’ve Been Loving You Too Long”
PERFORMER “The Rolling Stones”
INDEX 00 22:40:20
INDEX 01 22:42:20
TRACK 11 AUDIO
TITLE “Looking Tired”
PERFORMER “The Rolling Stones”
INDEX 00 25:35:63
INDEX 01 25:37:63
TRACK 12 AUDIO
TITLE “19th Nervous Breakdown”
PERFORMER “The Rolling Stones”
INDEX 00 27:51:21
INDEX 01 27:53:16
TRACK 13 AUDIO
TITLE “Con Le Mie Lacrime (As Tears Go By)”
PERFORMER “The Rolling Stones”
INDEX 00 31:41:52
INDEX 01 31:43:52
TRACK 14 AUDIO
TITLE “Out Of Time”
PERFORMER “The Rolling Stones”
INDEX 00 34:38:17
INDEX 01 34:40:17
TRACK 15 AUDIO
TITLE “Have You Seen Your Mother Baby”
PERFORMER “The Rolling Stones”
INDEX 00 37:58:52
INDEX 01 38:00:52
TRACK 16 AUDIO
TITLE “Get Yourself Together”
PERFORMER “The Rolling Stones”
INDEX 00 40:28:46
INDEX 01 40:30:46
TRACK 17 AUDIO
TITLE “Have You Seen Your Mother Baby”
PERFORMER “The Rolling Stones”
INDEX 00 43:15:33
INDEX 01 43:17:33
TRACK 18 AUDIO
TITLE “If You Let Me”
PERFORMER “The Rolling Stones”
INDEX 00 45:43:32
INDEX 01 45:45:32
TRACK 19 AUDIO
TITLE “Yesterday’s Papers”
PERFORMER “The Rolling Stones”
INDEX 00 48:59:13
INDEX 01 49:01:13
TRACK 20 AUDIO
TITLE “Sometimes Happy, Sometimes Blue”
PERFORMER “The Rolling Stones”
INDEX 00 51:04:10
INDEX 01 51:06:10
TRACK 21 AUDIO
TITLE “Get Yourself Together”
PERFORMER “The Rolling Stones”
INDEX 00 53:08:48
INDEX 01 53:10:48


Leave a Reply

Your email address will not be published. Required fields are marked *

This site uses Akismet to reduce spam. Learn how your comment data is processed.