The Rolling Stones – December’s Children (And Everybody’s) (Remastered)




Artist: The Rolling Stones
Year: 2002
Genre: Rock
Notes: Discogs
Add. Notes: Remastered
Cover incl.: Yes
Encoder: FLAC
Bitrate: ~800 kBit/s (44.1 kHz/16 Bit/s)
Log & Cue incl.: Yes
Size: 205,8 MB
Password: “slam” (without ” “)


All Downloads/Hosters are compatible

Download 1
KatFile.com
Turbobit.net
FileFactory.com
Rapidgator.net
Download 2
KatFile.com
Turbobit.net
FileFactory.com
Rapidgator.net

Tracklist:

1 She Said Yeah 1:35
2 Talkin' About You 2:31
3 You Better Move On 2:40
4 Look What You've Done 2:16
5 The Singer Not The Song 2:23
6 Route 66 2:40
7 Get Off Of My Cloud 2:56
8 I'm Free 2:24
9 As Tears Go By 2:46
10 Gotta Get Away 2:07
11 Blue Turns To Grey 2:29
12 I'm Moving On 2:13

EAC-Log, CUE-Sheed & NFO:

Click to open spoiler
Exact Audio Copy V1.0 beta 3 from 29. August 2011

EAC extraction logfile from 16. March 2013, 15:07

The Rolling Stones / December’s Children (And Everybody’s) (ABKCO 8822922)

Used drive : PLEXTOR DVDR PX-891SA Adapter: 1 ID: 0

Read mode : Secure
Utilize accurate stream : Yes
Defeat audio cache : Yes
Make use of C2 pointers : No

Read offset correction : 6
Overread into Lead-In and Lead-Out : No
Fill up missing offset samples with silence : Yes
Delete leading and trailing silent blocks : No
Null samples used in CRC calculations : Yes
Used interface : Native Win32 interface for Win NT & 2000

Used output format : User Defined Encoder
Selected bitrate : 1024 kBit/s
Quality : High
Add ID3 tag : No
Command line compressor : C:\Program Files\Exact Audio Copy\Flac\flac.exe
Additional command line options : -V -8 -T “Genre=%genre%” -T “Artist=%artist%” -T “Title=%title%” -T “Album=%albumtitle%” -T “Date=%year%” -T “Tracknumber=%tracknr%” -T “Comment=%comment%” %source%

TOC of the extracted CD

Track | Start | Length | Start sector | End sector
———————————————————
1 | 0:00.00 | 1:35.02 | 0 | 7126
2 | 1:35.02 | 2:31.08 | 7127 | 18459
3 | 4:06.10 | 2:40.47 | 18460 | 30506
4 | 6:46.57 | 2:16.65 | 30507 | 40771
5 | 9:03.47 | 2:23.38 | 40772 | 51534
6 | 11:27.10 | 2:40.25 | 51535 | 63559
7 | 14:07.35 | 2:56.20 | 63560 | 76779
8 | 17:03.55 | 2:24.05 | 76780 | 87584
9 | 19:27.60 | 2:46.20 | 87585 | 100054
10 | 22:14.05 | 2:07.27 | 100055 | 109606
11 | 24:21.32 | 2:29.25 | 109607 | 120806
12 | 26:50.57 | 2:13.55 | 120807 | 130836

Range status and errors

Selected range

Filename H:\dafnaplus\1965 December’s Children (And Everybody’s) [ABKCO 8822922]\The Rolling Stones – December’s Children (And Everybody’s) (ABKCO 8822922).wav

Peak level 98.8 %
Extraction speed 7.0 X
Range quality 100.0 %
Test CRC 1D010D4B
Copy CRC 1D010D4B
Copy OK

No errors occurred

AccurateRip summary

Track 1 accurately ripped (confidence 2) [F22AAFDC] (AR v2)
Track 2 accurately ripped (confidence 2) [4DAC569E] (AR v2)
Track 3 accurately ripped (confidence 2) [562DECAF] (AR v2)
Track 4 accurately ripped (confidence 2) [F1780801] (AR v2)
Track 5 accurately ripped (confidence 2) [549D2CFE] (AR v2)
Track 6 accurately ripped (confidence 2) [BEB23063] (AR v2)
Track 7 accurately ripped (confidence 2) [F1885F3D] (AR v2)
Track 8 accurately ripped (confidence 2) [5624F4A7] (AR v2)
Track 9 accurately ripped (confidence 2) [20CB987B] (AR v2)
Track 10 accurately ripped (confidence 2) [C41DF51D] (AR v2)
Track 11 accurately ripped (confidence 2) [62046F7C] (AR v2)
Track 12 accurately ripped (confidence 2) [909198EE] (AR v2)

All tracks accurately ripped

End of status report

==== Log checksum 726E9E9AF9208C6614CC20BF90576BD837372697C647D6A835AE26CB756530C9 ====

REM DATE 2002
REM DISCID A406D00C
REM COMMENT “ExactAudioCopy v1.0b3”
PERFORMER “The Rolling Stones”
TITLE “December’s Children (And Everybody’s) (ABKCO 8822922)”
FILE “The Rolling Stones – December’s Children (And Everybody’s) (ABKCO 8822922).flac” WAVE
TRACK 01 AUDIO
TITLE “She Said Yeah”
PERFORMER “The Rolling Stones”
ISRC USA176510220
INDEX 01 00:00:00
TRACK 02 AUDIO
TITLE “Talkin’ About You”
PERFORMER “The Rolling Stones”
ISRC USA176510230
INDEX 00 01:34:02
INDEX 01 01:35:02
TRACK 03 AUDIO
TITLE “You Better Move On”
PERFORMER “The Rolling Stones”
ISRC USA176410280
INDEX 00 04:05:65
INDEX 01 04:06:10
TRACK 04 AUDIO
TITLE “Look What You’ve Done”
PERFORMER “The Rolling Stones”
ISRC USA176510240
INDEX 00 06:45:50
INDEX 01 06:46:57
TRACK 05 AUDIO
TITLE “The Singer Not The Song”
PERFORMER “The Rolling Stones”
ISRC USA176510250
INDEX 00 09:02:40
INDEX 01 09:03:47
TRACK 06 AUDIO
TITLE “Route 66”
PERFORMER “The Rolling Stones”
ISRC USA176510260
INDEX 00 11:25:65
INDEX 01 11:27:10
TRACK 07 AUDIO
TITLE “Get Off Of My Cloud”
PERFORMER “The Rolling Stones”
ISRC USA176510270
INDEX 00 14:06:32
INDEX 01 14:07:35
TRACK 08 AUDIO
TITLE “I’m Free”
PERFORMER “The Rolling Stones”
ISRC USA176510280
INDEX 00 17:02:42
INDEX 01 17:03:55
TRACK 09 AUDIO
TITLE “As Tears Go By”
PERFORMER “The Rolling Stones”
ISRC USA176510290
INDEX 00 19:26:65
INDEX 01 19:27:60
TRACK 10 AUDIO
TITLE “Gotta Get Away”
PERFORMER “The Rolling Stones”
ISRC USA176510300
INDEX 00 22:13:05
INDEX 01 22:14:05
TRACK 11 AUDIO
TITLE “Blue Turns To Grey”
PERFORMER “The Rolling Stones”
ISRC USA176510310
INDEX 00 24:20:57
INDEX 01 24:21:32
TRACK 12 AUDIO
TITLE “I’m Moving On”
PERFORMER “The Rolling Stones”
ISRC USA176510320
INDEX 00 26:50:20
INDEX 01 26:50:57


0

Publication author

offline 12 hours

Chaos

3
Comments: 3Publics: 3189Registration: 02-02-2019
Spread the Download

Leave a Reply

Your email address will not be published. Required fields are marked *

Enter the text from the image below
 

This site uses Akismet to reduce spam. Learn how your comment data is processed.