The Rolling Stones – December’s Children (And Everybody’s) (Reissue)




Artist: The Rolling Stones
Year: 1965/1988
Genre: Rock
Notes: Discogs
Add. Notes: Reissue
Cover incl.: Yes
Encoder: FLAC
Bitrate: ~700 kBit/s (44.1 kHz/16 Bit/s)
Log & Cue incl.: Yes
Size: 156,79 MB
Password: “slam” (without ” “)


All Downloads/Hosters are compatible

Download 1
Turbobit.net
NitroFlare.com
KatFile.com
Rapidgator.net
Download 2
Turbobit.net
NitroFlare.com
KatFile.com
Rapidgator.net

Tracklist:

1 - She Said "Yeah" - 1:35
2 - Talkin' About You - 2:31
3 - You Better Move On - 2:38
4 - Look What You've Done - 2:16
5 - The Singer Not The Song - 2:24
6 - (Get Your Kicks On) Route 66 (Live) - 2:34
7 - Get Off Of My Cloud - 2:56
8 - I'm Free - 2:25
9 - As Tears Go By - 2:42
10 - Gotta Get Away - 2:08
11 - Blue Turns To Grey - 2:31
12 - I'm Moving On (Live) - 2:14

EAC-Log, CUE-Sheed & NFO:

Click to open spoiler
Exact Audio Copy V1.0 beta 3 from 29. August 2011

EAC extraction logfile from 3. July 2013, 14:46

The Rolling Stones / December’s Children (And Everybody’s) (Brazil)

Used drive : SONY DVD+-RW DW-D56A Adapter: 1 ID: 0

Read mode : Secure
Utilize accurate stream : Yes
Defeat audio cache : Yes
Make use of C2 pointers : No

Read offset correction : 12
Overread into Lead-In and Lead-Out : No
Fill up missing offset samples with silence : Yes
Delete leading and trailing silent blocks : No
Null samples used in CRC calculations : Yes
Used interface : Native Win32 interface for Win NT & 2000

Used output format : User Defined Encoder
Selected bitrate : 768 kBit/s
Quality : High
Add ID3 tag : No
Command line compressor : C:\Program Files\Exact Audio Copy\FLAC\FLAC.EXE
Additional command line options : -V -8 -T “Date=%year%” -T “Genre=%genre%” %source%

TOC of the extracted CD

Track | Start | Length | Start sector | End sector
———————————————————
1 | 0:00.32 | 1:39.03 | 32 | 7459
2 | 1:39.35 | 2:36.05 | 7460 | 19164
3 | 4:15.40 | 2:42.70 | 19165 | 31384
4 | 6:58.35 | 2:20.20 | 31385 | 41904
5 | 9:18.55 | 2:28.15 | 41905 | 53019
6 | 11:46.70 | 2:42.55 | 53020 | 65224
7 | 14:29.50 | 2:59.72 | 65225 | 78721
8 | 17:29.47 | 2:28.33 | 78722 | 89854
9 | 19:58.05 | 2:47.47 | 89855 | 102426
10 | 22:45.52 | 2:11.63 | 102427 | 112314
11 | 24:57.40 | 2:35.12 | 112315 | 123951
12 | 27:32.52 | 2:18.55 | 123952 | 134356

Range status and errors

Selected range

Filename E:\RUTRA\London\1965 – December’s Children (Brazil)\The Rolling Stones – December’s Children (And Everybody’s) (Brazil).wav

Peak level 81.4 %
Extraction speed 3.8 X
Range quality 100.0 %
Test CRC 0F162992
Copy CRC 0F162992
Copy OK

No errors occurred

AccurateRip summary

Track 1 accurately ripped (confidence 2) [C5A0E78D] (AR v1)
Track 2 accurately ripped (confidence 2) [2F004946] (AR v1)
Track 3 not present in database
Track 4 not present in database
Track 5 accurately ripped (confidence 2) [FFA710A7] (AR v1)
Track 6 accurately ripped (confidence 2) [35D1659A] (AR v1)
Track 7 accurately ripped (confidence 2) [6F0BCA64] (AR v1)
Track 8 accurately ripped (confidence 2) [1909DDDE] (AR v1)
Track 9 accurately ripped (confidence 2) [90DBF9AF] (AR v1)
Track 10 accurately ripped (confidence 2) [6C8B9154] (AR v1)
Track 11 accurately ripped (confidence 2) [58E18E60] (AR v1)
Track 12 accurately ripped (confidence 2) [E645408E] (AR v1)

10 track(s) accurately ripped
2 track(s) not present in the AccurateRip database

Some tracks could not be verified as accurate

End of status report

==== Log checksum F798F934E8B039C11C392CDDFA0F2D09A95B9FE3BEC6103DF4802CBF0006814F ====

REM GENRE Rock
REM DATE 1965
REM DISCID 8406FF0C
REM COMMENT “ExactAudioCopy v1.0b3”
PERFORMER “The Rolling Stones”
TITLE “December’s Children (And Everybody’s) (Brazil)”
FILE “The Rolling Stones – December’s Children (And Everybody’s) (Brazil).flac” WAVE
TRACK 01 AUDIO
TITLE “She Said Yeah”
PERFORMER “The Rolling Stones”
INDEX 00 00:00:00
INDEX 01 00:00:32
TRACK 02 AUDIO
TITLE “Talkin’ About You”
PERFORMER “The Rolling Stones”
INDEX 00 01:38:20
INDEX 01 01:39:35
TRACK 03 AUDIO
TITLE “You Better Move On”
PERFORMER “The Rolling Stones”
INDEX 00 04:13:17
INDEX 01 04:15:40
TRACK 04 AUDIO
TITLE “Look What You’ve Done”
PERFORMER “The Rolling Stones”
INDEX 00 06:56:30
INDEX 01 06:58:35
TRACK 05 AUDIO
TITLE “The Singer Not The Song”
PERFORMER “The Rolling Stones”
INDEX 00 09:16:40
INDEX 01 09:18:55
TRACK 06 AUDIO
TITLE “Route 66 (Live)”
PERFORMER “The Rolling Stones”
INDEX 00 11:45:02
INDEX 01 11:46:70
TRACK 07 AUDIO
TITLE “Get Off My Cloud”
PERFORMER “The Rolling Stones”
INDEX 00 14:27:42
INDEX 01 14:29:50
TRACK 08 AUDIO
TITLE “I’m Free”
PERFORMER “The Rolling Stones”
INDEX 00 17:27:35
INDEX 01 17:29:47
TRACK 09 AUDIO
TITLE “As Tears Go By”
PERFORMER “The Rolling Stones”
INDEX 00 19:56:10
INDEX 01 19:58:05
TRACK 10 AUDIO
TITLE “Gotta Get Away”
PERFORMER “The Rolling Stones”
INDEX 00 22:43:20
INDEX 01 22:45:52
TRACK 11 AUDIO
TITLE “Blue Turns To Grey”
PERFORMER “The Rolling Stones”
INDEX 00 24:55:40
INDEX 01 24:57:40
TRACK 12 AUDIO
TITLE “I’m Moving On”
PERFORMER “The Rolling Stones”
INDEX 00 27:30:12
INDEX 01 27:32:52


Leave a Reply

Your email address will not be published. Required fields are marked *

This site uses Akismet to reduce spam. Learn how your comment data is processed.