The Rolling Stones – December’s Children (And Everybody’s) (Japanese Edition)




No Cover available

Artist: The Rolling Stones
Year: 1965/1989
Genre: Rock
Notes: Discogs
Add. Notes: Japanese Edition
Watch Songs on: YouTube
Cover incl.: Yes
Encoder: FLAC
Bitrate: ~700 kBit/s (44.1 kHz/16 Bit/s)
Log & Cue incl.: Yes/Yes
Size: 210,9 MB
Password: “slam” (without ” “)


All Downloads/Hosters are compatible

Download 1
KatFile.com
Turbobit.net
Rapidgator.net
FileFactory.com
Download 2
KatFile.com
Turbobit.net
Rapidgator.net
FileFactory.com

Tracklist:

1 She Said Yeah 
2 Talkin' About You 
3 You Better Move On 
4 Look What You've Done 
5 The Singer, Not The Song 
6 Route 66 (Live) 
7 Get Off Of My Cloud 
8 I'm Free 
9 As Tears Go By 
10 Gotta Get Away 
11 Blue Turns To Grey 
12 I'm Moving On (Live)

EAC-Log, CUE-Sheed & NFO:

Click to open spoiler
Exact Audio Copy V1.0 beta 3 from 29. August 2011

EAC extraction logfile from 6. April 2013, 20:02

The Rolling Stones / December’s Children (And Everybody’s) (P25L 25036)

Used drive : PLEXTOR DVDR PX-891SA Adapter: 1 ID: 0

Read mode : Secure
Utilize accurate stream : Yes
Defeat audio cache : Yes
Make use of C2 pointers : No

Read offset correction : 6
Overread into Lead-In and Lead-Out : No
Fill up missing offset samples with silence : Yes
Delete leading and trailing silent blocks : No
Null samples used in CRC calculations : Yes
Used interface : Native Win32 interface for Win NT & 2000

Used output format : User Defined Encoder
Selected bitrate : 1024 kBit/s
Quality : High
Add ID3 tag : No
Command line compressor : C:\Program Files\Exact Audio Copy\Flac\flac.exe
Additional command line options : -V -8 -T “Genre=%genre%” -T “Artist=%artist%” -T “Title=%title%” -T “Album=%albumtitle%” -T “Date=%year%” -T “Tracknumber=%tracknr%” -T “Comment=%comment%” %source%

TOC of the extracted CD

Track | Start | Length | Start sector | End sector
———————————————————
1 | 0:00.37 | 1:39.23 | 37 | 7484
2 | 1:39.60 | 2:36.07 | 7485 | 19191
3 | 4:15.67 | 2:43.08 | 19192 | 31424
4 | 6:59.00 | 2:20.27 | 31425 | 41951
5 | 9:19.27 | 2:28.20 | 41952 | 53071
6 | 11:47.47 | 2:43.03 | 53072 | 65299
7 | 14:30.50 | 3:00.07 | 65300 | 78806
8 | 17:30.57 | 2:28.48 | 78807 | 89954
9 | 19:59.30 | 2:47.57 | 89955 | 102536
10 | 22:47.12 | 2:11.73 | 102537 | 112434
11 | 24:59.10 | 2:35.30 | 112435 | 124089
12 | 27:34.40 | 2:18.35 | 124090 | 134474

Range status and errors

Selected range

Filename H:\dafnaplus\The Rolling Stones – December’s Children (And Everybody’s)\The Rolling Stones – December’s Children (And Everybody’s) (P25L 25036).wav

Peak level 88.2 %
Extraction speed 2.9 X
Range quality 100.0 %
Test CRC 690F1B2B
Copy CRC 690F1B2B
Copy OK

No errors occurred

AccurateRip summary

Track 1 not present in database
Track 2 not present in database
Track 3 not present in database
Track 4 not present in database
Track 5 not present in database
Track 6 not present in database
Track 7 accurately ripped (confidence 1) [BC174AC4] (AR v1)
Track 8 accurately ripped (confidence 1) [F2C61124] (AR v1)
Track 9 accurately ripped (confidence 1) [10F7D577] (AR v1)
Track 10 not present in database
Track 11 not present in database
Track 12 not present in database

3 track(s) accurately ripped
9 track(s) not present in the AccurateRip database

Some tracks could not be verified as accurate

End of status report

==== Log checksum 505AE7D9A298F162EB9E6B7378F307E3A5A03B1F382D574B3BA6DC14D2A9DF7B ====

REM GENRE Rock
REM DATE 1989
REM DISCID 7E07010C
REM COMMENT “ExactAudioCopy v1.0b3”
CATALOG 0000000000000
PERFORMER “The Rolling Stones”
TITLE “December’s Children (And Everybody’s) (P25L 25036)”
FILE “The Rolling Stones – December’s Children (And Everybody’s) (P25L 25036).flac” WAVE
TRACK 01 AUDIO
TITLE “She Said Yeah”
PERFORMER “The Rolling Stones”
INDEX 00 00:00:00
INDEX 01 00:00:37
TRACK 02 AUDIO
TITLE “Talkin’ About You”
PERFORMER “The Rolling Stones”
INDEX 00 01:37:58
INDEX 01 01:39:60
TRACK 03 AUDIO
TITLE “You Better Move On”
PERFORMER “The Rolling Stones”
INDEX 00 04:13:27
INDEX 01 04:15:67
TRACK 04 AUDIO
TITLE “Look What You’ve Done”
PERFORMER “The Rolling Stones”
INDEX 00 06:56:62
INDEX 01 06:59:00
TRACK 05 AUDIO
TITLE “The Singer Not The Song”
PERFORMER “The Rolling Stones”
INDEX 00 09:17:01
INDEX 01 09:19:27
TRACK 06 AUDIO
TITLE “Route 66 (Live)”
PERFORMER “The Rolling Stones”
INDEX 00 11:45:66
INDEX 01 11:47:47
TRACK 07 AUDIO
TITLE “Get Off My Cloud”
PERFORMER “The Rolling Stones”
INDEX 00 14:28:08
INDEX 01 14:30:50
TRACK 08 AUDIO
TITLE “I’m Free”
PERFORMER “The Rolling Stones”
INDEX 00 17:28:37
INDEX 01 17:30:57
TRACK 09 AUDIO
TITLE “As Tears Go By”
PERFORMER “The Rolling Stones”
INDEX 00 19:57:12
INDEX 01 19:59:30
TRACK 10 AUDIO
TITLE “Gotta Get Away”
PERFORMER “The Rolling Stones”
INDEX 00 22:44:24
INDEX 01 22:47:12
TRACK 11 AUDIO
TITLE “Blue Turns To Grey”
PERFORMER “The Rolling Stones”
INDEX 00 24:57:26
INDEX 01 24:59:10
TRACK 12 AUDIO
TITLE “I’m Moving On”
PERFORMER “The Rolling Stones”
INDEX 00 27:32:36
INDEX 01 27:34:40


0

Publication author

offline 7 hours

Chaos

3
Comments: 4Publics: 3424Registration: 02-02-2019
Spread the Download

Leave a Reply

Your email address will not be published. Required fields are marked *

Enter the text from the image below
 

This site uses Akismet to reduce spam. Learn how your comment data is processed.