The Rolling Stones – Charlie Is My Darling – Ireland 1965 (Limited Edition)




Artist: The Rolling Stones
Year: 1988/2012
Genre: Rock
Notes: Discogs
Add. Notes: Limited Edition
Cover incl.: Yes
Encoder: FLAC
Bitrate: ~700 kBit/s (44.1 kHz/16 Bit/s)
Log & Cue incl.: Yes
Size: 649 MB
Password: “slam” (without ” “)


All Downloads/Hosters are compatible

Download 1
KatFile.com
Rapidgator.net
Turbobit.net
FileFactory.com
Download 2
KatFile.com
Rapidgator.net
Turbobit.net
FileFactory.com

Tracklist:

CD 1: 
1. Play With Fire (2:24)
2. Heart Of Stone (2:45)
3. Who Do You Like In The Group? 
(0:38)
4. The Last Time (Live) (3:19)
5. Time Is On My Side (Live) (2:54)
6. I'm Alright (Live) (2:36)
7. The Next House We'll Turn The 
Screaming Down (0:31)
8. Theme For A Rolling Stone (3:12)
9. Nice Tea (0:56)
10. Maybe It's Because I'm A 
Londoner (2:13)
11. Play With Fire (2:15)
12. Tell Me (2:19)
13. Heart Of Stone (3:04)
14. Are You Going To The Show? 
(0:21)
15. Everybody Needs Somebody To 
Love (Live) (0:39)
16. Pain In My Heart (Live) (2:06)
17. Blue Turns To Grey (2:55)
18. Subconsciously Supernatural 
(0:11)
19. (I Can't Get No) Satisfaction 
(2:55)
20. The Moon In June (0:36)
21. (I Can't Get No) Satisfaction 
(Live) (3:38)
22. Going Home (11:19)

CD 2: 
1. Show Intro (0:21)
2. Everybody Needs Somebody To 
Love (0:35)
3. Pain In My Heart (2:03)
4. Down The Road Apiece (1:43)
5. Time Is On My Side (2:51)
6. I'm Alright (2:15)
7. Off The Hook (2:27)
8. Charlie's Intro To Little Red 
Rooster (0:32)
9. Little Red Rooster (2:35)
10. Route 66 (2:44)
11. I'm Moving On (2:28)
12. The Last Time (3:09)
13. Everybody Needs Somebody To 
Love (Finale) (4:06)

EAC-Log, CUE-Sheed & NFO:

Click to open spoiler
Exact Audio Copy V1.0 beta 3 from 29. August 2011

Отчёт EAC об извлечении, выполненном 16. мая 2015, 22:59

The Rolling Stones / Charlie Is My Darling – Ireland 1965 (CD1 – Soundtrack)

Дисковод: ATAPI iHES108 2 Adapter: 3 ID: 1

Режим чтения : Достоверность
Использование точного потока : Да
Отключение кэша аудио : Да
Использование указателей C2 : Нет

Коррекция смещения при чтении : 6
Способность читать области Lead-in и Lead-out : Нет
Заполнение пропущенных сэмплов тишиной : Да
Удаление блоков с тишиной в начале и конце : Нет
При вычислениях CRC использовались нулевые сэмплы : Да
Интерфейс : Встроенный Win32-интерфейс для Win NT/2000

Выходной формат : Пользовательский кодировщик
Выбранный битрейт : 1024 kBit/s
Качество : Высокий
Добавление ID3-тега : Нет
Утилита сжатия : C:\Program Files\Exact Audio Copy\Flac\flac.exe
Дополнительные параметры : -V -8 -T “Date=%year%” -T “Genre=%genre%” %source%

TOC извлечённого CD

Трек | Старт | Длительность | Начальный сектор | Конечный сектор
———————————————————————
1 | 0:00.00 | 2:24.47 | 0 | 10846
2 | 2:24.47 | 2:45.70 | 10847 | 23291
3 | 5:10.42 | 0:38.08 | 23292 | 26149
4 | 5:48.50 | 3:19.61 | 26150 | 41135
5 | 9:08.36 | 2:54.56 | 41136 | 54241
6 | 12:03.17 | 2:36.50 | 54242 | 65991
7 | 14:39.67 | 0:31.50 | 65992 | 68366
8 | 15:11.42 | 3:12.22 | 68367 | 82788
9 | 18:23.64 | 0:56.65 | 82789 | 87053
10 | 19:20.54 | 2:13.23 | 87054 | 97051
11 | 21:34.02 | 2:15.04 | 97052 | 107180
12 | 23:49.06 | 2:19.72 | 107181 | 117677
13 | 26:09.03 | 3:04.06 | 117678 | 131483
14 | 29:13.09 | 0:21.53 | 131484 | 133111
15 | 29:34.62 | 0:39.44 | 133112 | 136080
16 | 30:14.31 | 2:06.51 | 136081 | 145581
17 | 32:21.07 | 2:55.13 | 145582 | 158719
18 | 35:16.20 | 0:11.21 | 158720 | 159565
19 | 35:27.41 | 2:55.13 | 159566 | 172703
20 | 38:22.54 | 0:36.11 | 172704 | 175414
21 | 38:58.65 | 3:38.05 | 175415 | 191769
22 | 42:36.70 | 11:19.09 | 191770 | 242703

Характеристики диапазона извлечения и сообщения об ошибках

Выбранный диапазон

Имя файла D:\EAC-FOLDER\!!!RS_2009\The Rolling Stones – Charlie Is My Darling\The Rolling Stones – Charlie Is My Darling\cd1\The Rolling Stones – Charlie Is My Darling – Ireland 1965 (CD1 – Soundtrack).wav

Пиковый уровень 100.0 %
Скорость извлечения 4.6 X
Качество диапазона 100.0 %
CRC теста DE5E3E8B
CRC копии DE5E3E8B
Копирование… OK

Ошибок не произошло

AccurateRip: сводка

Трек 1 : извлечено точно (доверие 5) [D73192AA] (AR v2)
Трек 2 : извлечено точно (доверие 5) [8B49DC17] (AR v2)
Трек 3 : извлечено точно (доверие 5) [DF7E7265] (AR v2)
Трек 4 : извлечено точно (доверие 5) [01A0BB2F] (AR v2)
Трек 5 : извлечено точно (доверие 5) [398721F8] (AR v2)
Трек 6 : извлечено точно (доверие 5) [DFD39381] (AR v2)
Трек 7 : извлечено точно (доверие 5) [1AA483F4] (AR v2)
Трек 8 : извлечено точно (доверие 5) [6B1234C7] (AR v2)
Трек 9 : извлечено точно (доверие 5) [6F0A573A] (AR v2)
Трек 10 : извлечено точно (доверие 5) [8C20BE0B] (AR v2)
Трек 11 : извлечено точно (доверие 5) [9FECA4EB] (AR v2)
Трек 12 : извлечено точно (доверие 5) [8BE3D1DA] (AR v2)
Трек 13 : извлечено точно (доверие 5) [AF34D8F9] (AR v2)
Трек 14 : извлечено точно (доверие 5) [EF9086D7] (AR v2)
Трек 15 : извлечено точно (доверие 5) [9DA99518] (AR v2)
Трек 16 : извлечено точно (доверие 5) [69E4B44D] (AR v2)
Трек 17 : извлечено точно (доверие 5) [ADBD64AB] (AR v2)
Трек 18 : извлечено точно (доверие 5) [92D13E35] (AR v2)
Трек 19 : извлечено точно (доверие 5) [85EF28F4] (AR v2)
Трек 20 : извлечено точно (доверие 5) [B90C5B43] (AR v2)
Трек 21 : извлечено точно (доверие 5) [2BB381A8] (AR v2)
Трек 22 : извлечено точно (доверие 5) [BAC3E490] (AR v2)

Все треки извлечены точно

Конец отчёта

==== Контрольная сумма отчёта B4766E144113CF925EFC86B8FBBB04059F6609484A92372743A1FAE64432CF5D ====

Exact Audio Copy V1.0 beta 3 from 29. August 2011

Отчёт EAC об извлечении, выполненном 16. мая 2015, 22:28

The Rolling Stones / Charlie Is My Darling – Ireland 1965 (CD2 – Live In England ’65)

Дисковод: ATAPI iHES108 2 Adapter: 3 ID: 1

Режим чтения : Достоверность
Использование точного потока : Да
Отключение кэша аудио : Да
Использование указателей C2 : Нет

Коррекция смещения при чтении : 6
Способность читать области Lead-in и Lead-out : Нет
Заполнение пропущенных сэмплов тишиной : Да
Удаление блоков с тишиной в начале и конце : Нет
При вычислениях CRC использовались нулевые сэмплы : Да
Интерфейс : Встроенный Win32-интерфейс для Win NT/2000

Выходной формат : Пользовательский кодировщик
Выбранный битрейт : 1024 kBit/s
Качество : Высокий
Добавление ID3-тега : Нет
Утилита сжатия : C:\Program Files\Exact Audio Copy\Flac\flac.exe
Дополнительные параметры : -V -8 -T “Date=%year%” -T “Genre=%genre%” %source%

TOC извлечённого CD

Трек | Старт | Длительность | Начальный сектор | Конечный сектор
———————————————————————
1 | 0:00.00 | 0:21.00 | 0 | 1574
2 | 0:21.00 | 0:35.69 | 1575 | 4268
3 | 0:56.69 | 2:03.38 | 4269 | 13531
4 | 3:00.32 | 1:43.11 | 13532 | 21267
5 | 4:43.43 | 2:51.20 | 21268 | 34112
6 | 7:34.63 | 2:15.03 | 34113 | 44240
7 | 9:49.66 | 2:27.03 | 44241 | 55268
8 | 12:16.69 | 0:32.71 | 55269 | 57739
9 | 12:49.65 | 2:35.45 | 57740 | 69409
10 | 15:25.35 | 2:44.24 | 69410 | 81733
11 | 18:09.59 | 2:28.42 | 81734 | 92875
12 | 20:38.26 | 3:09.45 | 92876 | 107095
13 | 23:47.71 | 4:06.00 | 107096 | 125545

Характеристики диапазона извлечения и сообщения об ошибках

Выбранный диапазон

Имя файла D:\EAC-FOLDER\!!!RS_2009\The Rolling Stones – Charlie Is My Darling\The Rolling Stones – Charlie Is My Darling\cd2\The Rolling Stones – Charlie Is My Darling – Ireland 1965 (CD2 – Live In England ’65).wav

Пиковый уровень 98.8 %
Скорость извлечения 4.5 X
Качество диапазона 99.9 %
CRC теста 2C487472
CRC копии 2C487472
Копирование… OK

Ошибок не произошло

AccurateRip: сводка

Трек 1 : извлечено точно (доверие 4) [673BD00C] (AR v2)
Трек 2 : извлечено точно (доверие 4) [5B2ADEF5] (AR v2)
Трек 3 : извлечено точно (доверие 4) [8FB555B9] (AR v2)
Трек 4 : извлечено точно (доверие 4) [36781B8C] (AR v2)
Трек 5 : извлечено точно (доверие 4) [CEFB856A] (AR v2)
Трек 6 : извлечено точно (доверие 4) [6321D255] (AR v2)
Трек 7 : извлечено точно (доверие 4) [519297E5] (AR v2)
Трек 8 : извлечено точно (доверие 4) [A680E29B] (AR v2)
Трек 9 : извлечено точно (доверие 4) [04D742B8] (AR v2)
Трек 10 : извлечено точно (доверие 4) [04D40705] (AR v2)
Трек 11 : извлечено точно (доверие 4) [F26BBB2F] (AR v2)
Трек 12 : извлечено точно (доверие 4) [753F8BB8] (AR v2)
Трек 13 : извлечено точно (доверие 4) [CC68E518] (AR v2)

Все треки извлечены точно

Конец отчёта

==== Контрольная сумма отчёта EF58FCC9841BB8C55548A88D741FD3DCD304CE7DE90C8819ABF94936B69F286C ====

REM GENRE “Classic Rock”
REM DATE 2012
REM DISCID 140CA416
REM COMMENT “ExactAudioCopy v1.0b3”
CATALOG 0018771891123
PERFORMER “The Rolling Stones”
TITLE “Charlie Is My Darling – Ireland 1965 (CD1 – Soundtrack)”
FILE “The Rolling Stones – Charlie Is My Darling – Ireland 1965 (CD1 – Soundtrack).flac” WAVE
TRACK 01 AUDIO
TITLE “Play With Fire”
PERFORMER “The Aranbee Pop Symphony Orchestra”
ISRC USA1:1210013
INDEX 01 00:00:00
TRACK 02 AUDIO
TITLE “Heart Of Stone”
PERFORMER “The Rolling Stones”
ISRC USA1:6510040
INDEX 00 02:23:30
INDEX 01 02:24:47
TRACK 03 AUDIO
TITLE “Who Do You Like In The Group?”
PERFORMER “Peter Whitehead & Fans”
ISRC USA1:1210014
INDEX 00 05:09:67
INDEX 01 05:10:42
TRACK 04 AUDIO
TITLE “The Last Time (Live)”
PERFORMER “The Rolling Stones”
ISRC USA1:1210015
INDEX 01 05:48:50
TRACK 05 AUDIO
TITLE “Time Is On My Side (Live)”
PERFORMER “The Rolling Stones”
ISRC USA1:1210016
INDEX 01 09:08:36
TRACK 06 AUDIO
TITLE “I’m Alright (Live)”
PERFORMER “The Rolling Stones”
ISRC USA1:1210017
INDEX 01 12:03:17
TRACK 07 AUDIO
TITLE “The Next House We’ll Turn The Screaming Down”
PERFORMER “Andrew Loog Oldham & Priest”
ISRC USA1:1210018
INDEX 01 14:39:67
TRACK 08 AUDIO
TITLE “Theme For A Rolling Stone”
PERFORMER “The Andrew Oldham Orchestra”
ISRC TbBBA6672480
INDEX 00 15:09:55
INDEX 01 15:11:42
TRACK 09 AUDIO
TITLE “Nice Tea”
PERFORMER “The Rolling Stones & Andrew Loog Oldham”
ISRC USA1:1210019
INDEX 00 18:22:44
INDEX 01 18:23:64
TRACK 10 AUDIO
TITLE “Maybe It’s Because I’m A Londoner”
PERFORMER “ALO Productions”
ISRC USA1:1210020
INDEX 00 19:19:74
INDEX 01 19:20:54
TRACK 11 AUDIO
TITLE “Play With Fire”
PERFORMER “The Rolling Stones”
ISRC USA1:6510190
INDEX 00 21:31:58
INDEX 01 21:34:02
TRACK 12 AUDIO
TITLE “Tell Me”
PERFORMER “The Rolling Stones”
ISRC USA1:1210021
INDEX 00 23:47:47
INDEX 01 23:49:06
TRACK 13 AUDIO
TITLE “Heart Of Stone”
PERFORMER “The Andrew Oldham Orchestra”
ISRC TbBBA6672450
INDEX 00 26:07:53
INDEX 01 26:09:03
TRACK 14 AUDIO
TITLE “Are You Going To The Show?”
PERFORMER “Peter Whitehead & Fans”
ISRC USA1:1210022
INDEX 00 29:11:53
INDEX 01 29:13:09
TRACK 15 AUDIO
TITLE “Everybody Needs Somebody To Love (Live)”
PERFORMER “The Rolling Stones”
ISRC USA1:1210023
INDEX 01 29:34:62
TRACK 16 AUDIO
TITLE “Pain In My Heart (Live)”
PERFORMER “The Rolling Stones”
ISRC USA1:1210024
INDEX 01 30:14:31
TRACK 17 AUDIO
TITLE “Blue Turns To Grey”
PERFORMER “The Andrew Oldham Orchestra”
ISRC TbBBA6672410
INDEX 00 32:18:21
INDEX 01 32:21:07
TRACK 18 AUDIO
TITLE “Subconsciously Supernatural”
PERFORMER “Mick Jagger & Andrew Loog Oldham”
ISRC USA1:1210025
INDEX 00 35:15:10
INDEX 01 35:16:20
TRACK 19 AUDIO
TITLE “(I Can’t Get No) Satisfaction”
PERFORMER “The Andrew Oldham Orchestra”
ISRC TbBBA6672420
INDEX 00 35:25:66
INDEX 01 35:27:41
TRACK 20 AUDIO
TITLE “The Moon In June”
PERFORMER “Mick Jagger”
ISRC USA1:1210026
INDEX 01 38:22:54
TRACK 21 AUDIO
TITLE “(I Can’t Get No) Satisfaction (Live)”
PERFORMER “The Rolling Stones”
ISRC USA1:1210027
INDEX 00 38:58:26
INDEX 01 38:58:65
TRACK 22 AUDIO
TITLE “Going Home”
PERFORMER “The Rolling Stones”
ISRC USA1:6610120
INDEX 00 42:36:12
INDEX 01 42:36:70

REM GENRE “Classic Rock”
REM DATE 2012
REM DISCID A106890D
REM COMMENT “ExactAudioCopy v1.0b3”
CATALOG 0018771891222
PERFORMER “The Rolling Stones”
TITLE “Charlie Is My Darling – Ireland 1965 (CD2 – Live In England ’65)”
FILE “The Rolling Stones – Charlie Is My Darling – Ireland 1965 (CD2 – Live In England ’65).flac” WAVE
TRACK 01 AUDIO
TITLE “Show Intro”
PERFORMER “The Rolling Stones”
ISRC USA1:1210000
INDEX 01 00:00:00
TRACK 02 AUDIO
TITLE “Everybody Needs Somebody To Love”
PERFORMER “The Rolling Stones”
ISRC USA1:1210001
INDEX 01 00:21:00
TRACK 03 AUDIO
TITLE “Pain In My Heart”
PERFORMER “The Rolling Stones”
ISRC USA1:1210002
INDEX 01 00:56:69
TRACK 04 AUDIO
TITLE “Down The Road Apiece”
PERFORMER “The Rolling Stones”
ISRC USA1:1210003
INDEX 01 03:00:32
TRACK 05 AUDIO
TITLE “Time Is On My Side”
PERFORMER “The Rolling Stones”
ISRC USA1:1210004
INDEX 01 04:43:43
TRACK 06 AUDIO
TITLE “I’m Alright”
PERFORMER “The Rolling Stones”
ISRC USA1:1210004
INDEX 01 07:34:63
TRACK 07 AUDIO
TITLE “Off The Hook”
PERFORMER “The Rolling Stones”
ISRC USA1:1210006
INDEX 01 09:49:66
TRACK 08 AUDIO
TITLE “Charlie’s Intro To Little Red Rooster”
PERFORMER “The Rolling Stones”
ISRC USA1:1210007
INDEX 01 12:16:69
TRACK 09 AUDIO
TITLE “Little Red Rooster”
PERFORMER “The Rolling Stones”
ISRC USA1:1210008
INDEX 01 12:49:65
TRACK 10 AUDIO
TITLE “Route 66”
PERFORMER “The Rolling Stones”
ISRC USA1:1210009
INDEX 01 15:25:35
TRACK 11 AUDIO
TITLE “I’m Moving On”
PERFORMER “The Rolling Stones”
ISRC USA1:1210010
INDEX 01 18:09:59
TRACK 12 AUDIO
TITLE “The Last Time”
PERFORMER “The Rolling Stones”
ISRC USA1:1210011
INDEX 01 20:38:26
TRACK 13 AUDIO
TITLE “Everybody Needs Somebody To Love (Finale)”
PERFORMER “The Rolling Stones”
ISRC USA1:1210012
INDEX 01 23:47:71


Leave a Reply

Your email address will not be published. Required fields are marked *

This site uses Akismet to reduce spam. Learn how your comment data is processed.