The Rolling Stones – Bridges To Babylon (Remastered)




Artist: The Rolling Stones
Year: 1997/2009
Genre: Rock
Notes: Discogs
Add. Notes: Remastered
Cover incl.: Yes
Encoder: FLAC
Bitrate: ~1000 kBit/s (44.1 kHz/16 Bit/s)
Log & Cue incl.: Yes
Size: 473 MB
Password: “slam” (without ” “)


All Downloads/Hosters are compatible

Download 1
KatFile.com
Turbobit.net
FileFactory.com
Rapidgator.net
Download 2
KatFile.com
Turbobit.net
FileFactory.com
Rapidgator.net

Tracklist:

1 - Flip The Switch - 3:28
2 - Anybody Seen My Baby? - 4:31
3 - Low Down - 4:26
4 - Already Over Me - 5:24
5 - Gunface - 5:02
6 - You Don't Have To Mean It - 3:44
7 - Out Of Control - 4:43
8 - Saint Of Me - 5:15
9 - Might As Well Get Juiced - 5:23
10 - Always Suffering - 4:43
11 - Too Tight - 3:33
12 - Thief In The Night - 5:15
13 - How Can I Stop - 6:53

EAC-Log, CUE-Sheed & NFO:

Click to open spoiler
Exact Audio Copy V1.0 beta 3 from 29. August 2011

Отчёт EAC об извлечении, выполненном 12. мая 2015, 13:52

The Rolling Stones / Bridges To Babylon

Дисковод: Optiarc DVD RW AD-7203S Adapter: 0 ID: 0

Режим чтения : Достоверность
Использование точного потока : Да
Отключение кэша аудио : Да
Использование указателей C2 : Нет

Коррекция смещения при чтении : 48
Способность читать области Lead-in и Lead-out : Нет
Заполнение пропущенных сэмплов тишиной : Да
Удаление блоков с тишиной в начале и конце : Нет
При вычислениях CRC использовались нулевые сэмплы : Да
Интерфейс : Встроенный Win32-интерфейс для Win NT/2000

Выходной формат : Пользовательский кодировщик
Выбранный битрейт : 128 kBit/s
Качество : Высокий
Добавление ID3-тега : Нет
Утилита сжатия : C:\Program Files\Exact Audio Copy\Flac\flac.exe
Дополнительные параметры : -V -8 -T “Date=%year%” -T “Genre=%genre%” %source%

TOC извлечённого CD

Трек | Старт | Длительность | Начальный сектор | Конечный сектор
———————————————————————
1 | 0:00.00 | 3:27.35 | 0 | 15559
2 | 3:27.35 | 4:31.12 | 15560 | 35896
3 | 7:58.47 | 4:25.43 | 35897 | 55814
4 | 12:24.15 | 5:24.35 | 55815 | 80149
5 | 17:48.50 | 5:02.10 | 80150 | 102809
6 | 22:50.60 | 3:43.62 | 102810 | 119596
7 | 26:34.47 | 4:43.63 | 119597 | 140884
8 | 31:18.35 | 5:14.47 | 140885 | 164481
9 | 36:33.07 | 5:23.10 | 164482 | 188716
10 | 41:56.17 | 4:43.60 | 188717 | 210001
11 | 46:40.02 | 3:37.03 | 210002 | 226279
12 | 50:17.05 | 5:16.17 | 226280 | 249996
13 | 55:33.22 | 6:53.45 | 249997 | 281016

Характеристики диапазона извлечения и сообщения об ошибках

Выбранный диапазон

Имя файла F:\EAC\The Rolling Stones – Bridges To Babylon\The Rolling Stones – Bridges To Babylon_2009\The Rolling Stones – Bridges To Babylon.wav

Пиковый уровень 92.5 %
Скорость извлечения 4.1 X
Качество диапазона 100.0 %
CRC теста 7D48EA7A
CRC копии 7D48EA7A
Копирование… OK

Ошибок не произошло

AccurateRip: сводка

Трек 1 : извлечено точно (доверие 78) [4D16034B] (AR v2)
Трек 2 : извлечено точно (доверие 78) [FEF8AEE6] (AR v2)
Трек 3 : извлечено точно (доверие 78) [275F3F1F] (AR v2)
Трек 4 : извлечено точно (доверие 79) [51C16FC4] (AR v2)
Трек 5 : извлечено точно (доверие 78) [2CAD33C2] (AR v2)
Трек 6 : извлечено точно (доверие 78) [5EFFB3E9] (AR v2)
Трек 7 : извлечено точно (доверие 78) [6D1EE5B4] (AR v2)
Трек 8 : извлечено точно (доверие 76) [ABC8D953] (AR v2)
Трек 9 : извлечено точно (доверие 78) [7A462052] (AR v2)
Трек 10 : извлечено точно (доверие 78) [A1926DB3] (AR v2)
Трек 11 : извлечено точно (доверие 79) [429BDEF5] (AR v2)
Трек 12 : извлечено точно (доверие 78) [0885159B] (AR v2)
Трек 13 : извлечено точно (доверие 76) [8E6619C3] (AR v2)

Все треки извлечены точно

Конец отчёта

==== Контрольная сумма отчёта CAEABC883FCAB3B47C72C1C8AA6624EB409AA86FC56CB081173852C3CD48C472 ====

REM GENRE Rock
REM DATE 1997
REM DISCID AD0EA20D
REM COMMENT “ExactAudioCopy v1.0b3”
PERFORMER “The Rolling Stones”
TITLE “Bridges To Babylon ”
FILE “The Rolling Stones – Bridges To Babylon.flac” WAVE
TRACK 01 AUDIO
TITLE “Flip The Switch”
PERFORMER “The Rolling Stones”
INDEX 01 00:00:00
TRACK 02 AUDIO
TITLE “Anybody Seen My Baby”
PERFORMER “The Rolling Stones”
INDEX 01 03:27:35
TRACK 03 AUDIO
TITLE “Low Down”
PERFORMER “The Rolling Stones”
INDEX 01 07:58:47
TRACK 04 AUDIO
TITLE “Already Over Me”
PERFORMER “The Rolling Stones”
INDEX 00 12:22:70
INDEX 01 12:24:15
TRACK 05 AUDIO
TITLE “Gunface”
PERFORMER “The Rolling Stones”
INDEX 01 17:48:50
TRACK 06 AUDIO
TITLE “You Don’t Have To Mean It”
PERFORMER “The Rolling Stones”
INDEX 01 22:50:60
TRACK 07 AUDIO
TITLE “Out Of Control”
PERFORMER “The Rolling Stones”
INDEX 01 26:34:47
TRACK 08 AUDIO
TITLE “Saint Of Me”
PERFORMER “The Rolling Stones”
INDEX 01 31:18:35
TRACK 09 AUDIO
TITLE “Might As Well Get Juiced”
PERFORMER “The Rolling Stones”
INDEX 01 36:33:07
TRACK 10 AUDIO
TITLE “Always Suffering”
PERFORMER “The Rolling Stones”
INDEX 01 41:56:17
TRACK 11 AUDIO
TITLE “Too Tight”
PERFORMER “The Rolling Stones”
INDEX 01 46:40:02
TRACK 12 AUDIO
TITLE “Thief In The Night”
PERFORMER “The Rolling Stones”
INDEX 00 50:14:55
INDEX 01 50:17:05
TRACK 13 AUDIO
TITLE “How Can I Stop”
PERFORMER “The Rolling Stones”
INDEX 01 55:33:22


Leave a Reply

Your email address will not be published. Required fields are marked *

Enter the text from the image below
 

This site uses Akismet to reduce spam. Learn how your comment data is processed.