The Rolling Stones – Bridges To Babylon




No Cover available

Artist: The Rolling Stones
Year: 1997
Genre: Rock
Notes: Discogs
Add. Notes:
Watch Songs on: YouTube
Cover incl.: Yes
Encoder: FLAC
Bitrate: ~1000 kBit/s (44.1 kHz/16 Bit/s)
Log & Cue incl.: Yes/Yes
Size: 544,4 MB
Password: “slam” (without ” “)


All Downloads/Hosters are compatible

Download 1
KatFile.com
Turbobit.net
Rapidgator.net
FileFactory.com
Download 2
KatFile.com
Turbobit.net
Rapidgator.net
FileFactory.com

Tracklist:

1 - Flip The Switch - 3:28
2 - Anybody Seen My Baby? - 4:31
3 - Low Down - 4:26
4 - Already Over Me - 5:24
5 - Gunface - 5:02
6 - You Don't Have To Mean It - 3:44
7 - Out Of Control - 4:43
8 - Saint Of Me - 5:15
9 - Might As Well Get Juiced - 5:23
10 - Always Suffering - 4:43
11 - Too Tight - 3:33
12 - Thief In The Night - 5:15
13 - How Can't Stop - 5:53

EAC-Log, CUE-Sheed & NFO:

Click to open spoiler
Exact Audio Copy V1.0 beta 3 from 29. August 2011

EAC extraction logfile from 17. March 2013, 23:31

The Rolling Stones / Bridges to Babylon (Virgin CDV 2840)

Used drive : PLEXTOR DVDR PX-891SA Adapter: 1 ID: 0

Read mode : Secure
Utilize accurate stream : Yes
Defeat audio cache : Yes
Make use of C2 pointers : No

Read offset correction : 6
Overread into Lead-In and Lead-Out : No
Fill up missing offset samples with silence : Yes
Delete leading and trailing silent blocks : No
Null samples used in CRC calculations : Yes
Used interface : Native Win32 interface for Win NT & 2000

Used output format : User Defined Encoder
Selected bitrate : 1024 kBit/s
Quality : High
Add ID3 tag : No
Command line compressor : C:\Program Files\Exact Audio Copy\Flac\flac.exe
Additional command line options : -V -8 -T “Genre=%genre%” -T “Artist=%artist%” -T “Title=%title%” -T “Album=%albumtitle%” -T “Date=%year%” -T “Tracknumber=%tracknr%” -T “Comment=%comment%” %source%

TOC of the extracted CD

Track | Start | Length | Start sector | End sector
———————————————————
1 | 0:00.00 | 3:27.17 | 0 | 15541
2 | 3:27.17 | 4:31.13 | 15542 | 35879
3 | 7:58.30 | 4:25.72 | 35880 | 55826
4 | 12:24.27 | 5:24.05 | 55827 | 80131
5 | 17:48.32 | 5:02.10 | 80132 | 102791
6 | 22:50.42 | 3:44.20 | 102792 | 119611
7 | 26:34.62 | 4:43.33 | 119612 | 140869
8 | 31:18.20 | 5:14.50 | 140870 | 164469
9 | 36:32.70 | 5:23.22 | 164470 | 188716
10 | 41:56.17 | 4:43.63 | 188717 | 210004
11 | 46:40.05 | 3:37.22 | 210005 | 226301
12 | 50:17.27 | 5:15.65 | 226302 | 249991
13 | 55:33.17 | 6:54.33 | 249992 | 281074

Range status and errors

Selected range

Filename H:\dafnaplus\1997 Bridges To Babylon [Virgin CDV 2840]\The Rolling Stones – Bridges to Babylon (Virgin CDV 2840).wav

Peak level 100.0 %
Extraction speed 8.1 X
Range quality 100.0 %
Test CRC 1BB7477F
Copy CRC 1BB7477F
Copy OK

No errors occurred

AccurateRip summary

Track 1 accurately ripped (confidence 84) [040679EB] (AR v2)
Track 2 accurately ripped (confidence 84) [4264C020] (AR v2)
Track 3 accurately ripped (confidence 84) [337653B5] (AR v2)
Track 4 accurately ripped (confidence 84) [6014DC96] (AR v2)
Track 5 accurately ripped (confidence 83) [DA53224C] (AR v2)
Track 6 accurately ripped (confidence 83) [6F94A118] (AR v2)
Track 7 accurately ripped (confidence 83) [CF6129B7] (AR v2)
Track 8 accurately ripped (confidence 83) [F6603284] (AR v2)
Track 9 accurately ripped (confidence 81) [CC23BD39] (AR v2)
Track 10 accurately ripped (confidence 83) [3661E64F] (AR v2)
Track 11 accurately ripped (confidence 83) [CBB8A258] (AR v2)
Track 12 accurately ripped (confidence 81) [902905A2] (AR v2)
Track 13 accurately ripped (confidence 78) [BA1AB456] (AR v2)

All tracks accurately ripped

End of status report

==== Log checksum 3E1E6717F74EA3F93571B3D8C5A677000D311ABAF57FB75947B1181481DAAAA3 ====

REM GENRE Rock
REM DATE 1997
REM DISCID AC0EA30D
REM COMMENT “ExactAudioCopy v1.0b3”
CATALOG 0724384471224
PERFORMER “The Rolling Stones”
TITLE “Bridges to Babylon (Virgin CDV 2840)”
FILE “The Rolling Stones – Bridges to Babylon (Virgin CDV 2840).flac” WAVE
TRACK 01 AUDIO
TITLE “Flip the Switch”
PERFORMER “The Rolling Stones”
INDEX 01 00:00:00
TRACK 02 AUDIO
TITLE “Anybody Seen My Baby?”
PERFORMER “The Rolling Stones”
INDEX 01 03:27:17
TRACK 03 AUDIO
TITLE “Low Down”
PERFORMER “The Rolling Stones”
INDEX 01 07:58:30
TRACK 04 AUDIO
TITLE “Already Over Me”
PERFORMER “The Rolling Stones”
INDEX 00 12:22:30
INDEX 01 12:24:27
TRACK 05 AUDIO
TITLE “Gunface”
PERFORMER “The Rolling Stones”
INDEX 01 17:48:32
TRACK 06 AUDIO
TITLE “You Don’t Have to Mean It”
PERFORMER “The Rolling Stones”
INDEX 01 22:50:42
TRACK 07 AUDIO
TITLE “Out of Control”
PERFORMER “The Rolling Stones”
INDEX 00 26:33:15
INDEX 01 26:34:62
TRACK 08 AUDIO
TITLE “Saint of Me”
PERFORMER “The Rolling Stones”
INDEX 01 31:18:20
TRACK 09 AUDIO
TITLE “Might as Well Get Juiced”
PERFORMER “The Rolling Stones”
INDEX 01 36:32:70
TRACK 10 AUDIO
TITLE “Always Suffering”
PERFORMER “The Rolling Stones”
INDEX 01 41:56:17
TRACK 11 AUDIO
TITLE “Too Tight”
PERFORMER “The Rolling Stones”
INDEX 01 46:40:05
TRACK 12 AUDIO
TITLE “Thief in the Night”
PERFORMER “The Rolling Stones”
INDEX 00 50:13:55
INDEX 01 50:17:27
TRACK 13 AUDIO
TITLE “How Can I Stop?”
PERFORMER “The Rolling Stones”
INDEX 01 55:33:17


Leave a Reply

Your email address will not be published. Required fields are marked *

This site uses Akismet to reduce spam. Learn how your comment data is processed.