The Rolling Stones – Blue & Lonesome




[Total: 0    Average: 0/5]

Artist: The Rolling Stones
Year: 2016
Genre: Rock
Notes: Discogs
Add. Notes:
Cover incl.: Yes
Encoder: FLAC
Bitrate: ~900 kBit/s (44.1 kHz/16 Bit/s)
Log & Cue incl.: Yes
Size: 411 MB
Password: “slam” (without ” “)


All Downloads/Hosters are compatible

Download 1
KatFile.com
Turbobit.net
FileFactory.com
Rapidgator.net
Download 2
KatFile.com
Turbobit.net
FileFactory.com
Rapidgator.net

Tracklist:

1. Just Your Fool (2:16)
2. Commit A Crime (3:38)
3. Blue And Lonesome (3:08)
4. All Of Your Love (4:46)
5. I Gotta Go (3:26)
6. Everybody Knows About My Good 
Thing (4:31)
7. Ride 'Em On Down (2:49)
8. Hate To See You Go (3:21)
9. Hoo Doo Blues (2:37)
10. Little Rain (3:32)
11. Just Like I Treat You (3:25)
12. I Can't Quit You Baby (5:13)

EAC-Log, CUE-Sheed & NFO:

Click to open spoiler
Exact Audio Copy V1.3 from 2. September 2016

EAC extraction logfile from 22. April 2017, 23:14

The Rolling Stones / Blue & Lonesome (571 494-2)

Used drive : PLEXTOR DVDR PX-891SA Adapter: 1 ID: 0

Read mode : Secure
Utilize accurate stream : Yes
Defeat audio cache : Yes
Make use of C2 pointers : No

Read offset correction : 6
Overread into Lead-In and Lead-Out : No
Fill up missing offset samples with silence : Yes
Delete leading and trailing silent blocks : No
Null samples used in CRC calculations : Yes
Used interface : Native Win32 interface for Win NT & 2000

Used output format : User Defined Encoder
Selected bitrate : 128 kBit/s
Quality : High
Add ID3 tag : No
Command line compressor : C:\Program Files (x86)\Exact Audio Copy\Flac\flac.exe
Additional command line options : -V -8 -T “Genre=%genre%” -T “Artist=%artist%” -T “Title=%title%” -T “Album=%albumtitle%” -T “Date=%year%” -T “Tracknumber=%tracknr%” -T “Comment=%comment%” %source%

TOC of the extracted CD

Track | Start | Length | Start sector | End sector
———————————————————
1 | 0:00.00 | 2:16.32 | 0 | 10231
2 | 2:16.32 | 3:38.23 | 10232 | 26604
3 | 5:54.55 | 3:07.23 | 26605 | 40652
4 | 9:02.03 | 4:46.51 | 40653 | 62153
5 | 13:48.54 | 3:26.13 | 62154 | 77616
6 | 17:14.67 | 4:30.62 | 77617 | 97928
7 | 21:45.54 | 2:48.74 | 97929 | 110602
8 | 24:34.53 | 3:20.59 | 110603 | 125661
9 | 27:55.37 | 2:36.63 | 125662 | 137424
10 | 30:32.25 | 3:32.16 | 137425 | 153340
11 | 34:04.41 | 3:24.49 | 153341 | 168689
12 | 37:29.15 | 5:13.03 | 168690 | 192167

Range status and errors

Selected range

Filename H:\dafnaplus\Rolling Stones – Blue & Lonesome\The Rolling Stones – Blue & Lonesome (571 494-2).wav

Peak level 100.0 %
Extraction speed 7.3 X
Range quality 100.0 %
Test CRC AA36D1AC
Copy CRC AA36D1AC
Copy OK

No errors occurred

AccurateRip summary

Track 1 accurately ripped (confidence 200) [351DE256] (AR v2)
Track 2 accurately ripped (confidence 200) [9559D13B] (AR v2)
Track 3 accurately ripped (confidence 200) [8D23DC99] (AR v2)
Track 4 accurately ripped (confidence 200) [EB91D384] (AR v2)
Track 5 accurately ripped (confidence 200) [BE97D951] (AR v2)
Track 6 accurately ripped (confidence 200) [262DE4E2] (AR v2)
Track 7 accurately ripped (confidence 200) [5E2FFA30] (AR v2)
Track 8 accurately ripped (confidence 200) [72D4D3F8] (AR v2)
Track 9 accurately ripped (confidence 200) [0AAA3B96] (AR v2)
Track 10 accurately ripped (confidence 200) [9746377B] (AR v2)
Track 11 accurately ripped (confidence 200) [14DEB4F9] (AR v2)
Track 12 accurately ripped (confidence 200) [8A367439] (AR v2)

All tracks accurately ripped

End of status report

—- CUETools DB Plugin V2.1.6

[CTDB TOCID: 5PZbd9s9oKMwkzaKxih5VEQf4yk-] found
Submit result: 5PZbd9s9oKMwkzaKxih5VEQf4yk- has been confirmed
Track | CTDB Status
1 | (2237/2250) Accurately ripped, or (2/2250) differs in 10063 samples @00:00:10-00:00:19
2 | (2239/2250) Accurately ripped
3 | (2241/2250) Accurately ripped
4 | (2240/2250) Accurately ripped
5 | (2238/2250) Accurately ripped, or (2/2250) differs in 180 samples @03:09:23
6 | (2240/2250) Accurately ripped
7 | (2238/2250) Accurately ripped
8 | (2239/2250) Accurately ripped
9 | (2239/2250) Accurately ripped
10 | (2240/2250) Accurately ripped
11 | (2237/2250) Accurately ripped
12 | (2241/2250) Accurately ripped

==== Log checksum D4D15024D35935940DC07F2CAA831C074F239B4C280EB740B998E961B9883E96 ====
EM GENRE Blues
REM DATE 2016
REM DISCID 960A020C
REM COMMENT “ExactAudioCopy v1.3”
PERFORMER “The Rolling Stones”
TITLE “Blue & Lonesome (571 494-2)”
REM COMPOSER “”
FILE “The Rolling Stones – Blue & Lonesome (571 494-2).flac” WAVE
TRACK 01 AUDIO
TITLE “Just Your Fool”
PERFORMER “The Rolling Stones”
REM COMPOSER “”
INDEX 01 00:00:00
TRACK 02 AUDIO
TITLE “Commit A Crime”
PERFORMER “The Rolling Stones”
REM COMPOSER “”
INDEX 01 02:16:32
TRACK 03 AUDIO
TITLE “Blue And Lonesome”
PERFORMER “The Rolling Stones”
REM COMPOSER “”
INDEX 01 05:54:55
TRACK 04 AUDIO
TITLE “All Of Your Love”
PERFORMER “The Rolling Stones”
REM COMPOSER “”
INDEX 01 09:02:03
TRACK 05 AUDIO
TITLE “I Gotta Go”
PERFORMER “The Rolling Stones”
REM COMPOSER “”
INDEX 01 13:48:54
TRACK 06 AUDIO
TITLE “Everybody Knows About My Good Thing”
PERFORMER “The Rolling Stones”
REM COMPOSER “”
INDEX 01 17:14:67
TRACK 07 AUDIO
TITLE “Ride ‘Em On Down”
PERFORMER “The Rolling Stones”
REM COMPOSER “”
INDEX 01 21:45:54
TRACK 08 AUDIO
TITLE “Hate To See You Go”
PERFORMER “The Rolling Stones”
REM COMPOSER “”
INDEX 01 24:34:53
TRACK 09 AUDIO
TITLE “Hoo Doo Blues”
PERFORMER “The Rolling Stones”
REM COMPOSER “”
INDEX 01 27:55:37
TRACK 10 AUDIO
TITLE “Little Rain”
PERFORMER “The Rolling Stones”
REM COMPOSER “”
INDEX 01 30:32:25
TRACK 11 AUDIO
TITLE “Just Like I Treat You”
PERFORMER “The Rolling Stones”
REM COMPOSER “”
INDEX 01 34:04:41
TRACK 12 AUDIO
TITLE “I Can’t Quit You Baby”
PERFORMER “The Rolling Stones”
REM COMPOSER “”
INDEX 01 37:29:15


Spread the Download

Leave a Reply

Your email address will not be published. Required fields are marked *

Enter the text from the image below
 

This site uses Akismet to reduce spam. Learn how your comment data is processed.