The Rolling Stones – Black And Blue (Remastered)




Artist: The Rolling Stones
Year: 1976/2009
Genre: Rock
Notes: Discogs
Add. Notes: Remastered
Cover incl.: Yes
Encoder: FLAC
Bitrate: ~900 kBit/s (44.1 kHz/16 Bit/s)
Log & Cue incl.: Yes
Size: 298 MB
Password: “slam” (without ” “)


All Downloads/Hosters are compatible

Download 1
KatFile.com
Rapidgator.net
Turbobit.net
FileFactory.com
Download 2
KatFile.com
Rapidgator.net
Turbobit.net
FileFactory.com

Tracklist:

1 - Hot Stuff - 5:20
2 - Hand Of Fate - 4:27
3 - Cherry Oh Baby - 3:53
4 - Memory Hotel - 7:06
5 - Hey Negrita - 4:57
6 - Melody - 5:47
7 - Fool To Cry - 5:04
8 - Crazy Mama - 4:34

EAC-Log, CUE-Sheed & NFO:

Click to open spoiler
Exact Audio Copy V1.0 beta 3 from 29. August 2011

Отчёт EAC об извлечении, выполненном 8. мая 2015, 23:55

The Rolling Stones / Black And Blue

Дисковод: ATAPI iHES108 2 Adapter: 3 ID: 1

Режим чтения : Достоверность
Использование точного потока : Да
Отключение кэша аудио : Да
Использование указателей C2 : Нет

Коррекция смещения при чтении : 6
Способность читать области Lead-in и Lead-out : Нет
Заполнение пропущенных сэмплов тишиной : Да
Удаление блоков с тишиной в начале и конце : Нет
При вычислениях CRC использовались нулевые сэмплы : Да
Интерфейс : Встроенный Win32-интерфейс для Win NT/2000

Выходной формат : Пользовательский кодировщик
Выбранный битрейт : 1024 kBit/s
Качество : Высокий
Добавление ID3-тега : Нет
Утилита сжатия : C:\Program Files\Exact Audio Copy\Flac\flac.exe
Дополнительные параметры : -V -8 -T “Date=%year%” -T “Genre=%genre%” %source%

TOC извлечённого CD

Трек | Старт | Длительность | Начальный сектор | Конечный сектор
———————————————————————
1 | 0:00.00 | 5:21.57 | 0 | 24131
2 | 5:21.57 | 4:28.33 | 24132 | 44264
3 | 9:50.15 | 3:56.40 | 44265 | 62004
4 | 13:46.55 | 7:09.65 | 62005 | 94244
5 | 20:56.45 | 4:59.55 | 94245 | 116724
6 | 25:56.25 | 5:50.07 | 116725 | 142981
7 | 31:46.32 | 5:06.03 | 142982 | 165934
8 | 36:52.35 | 4:35.07 | 165935 | 186566

Характеристики диапазона извлечения и сообщения об ошибках

Выбранный диапазон

Имя файла D:\EAC-FOLDER\!!!RS_2009\Rolling Stones – Black And Blue\Rolling Stones – Black And Blue_2009\The Rolling Stones – Black And Blue.wav

Пиковый уровень 98.7 %
Скорость извлечения 4.4 X
Качество диапазона 100.0 %
CRC теста D817DEBE
CRC копии D817DEBE
Копирование… OK

Ошибок не произошло

AccurateRip: сводка

Трек 1 : извлечено точно (доверие 130) [972047A2] (AR v2)
Трек 2 : извлечено точно (доверие 133) [23884DA6] (AR v2)
Трек 3 : извлечено точно (доверие 130) [76D4120E] (AR v2)
Трек 4 : извлечено точно (доверие 130) [9790ECEF] (AR v2)
Трек 5 : извлечено точно (доверие 132) [EFC0DD3C] (AR v2)
Трек 6 : извлечено точно (доверие 130) [336E0FDC] (AR v2)
Трек 7 : извлечено точно (доверие 130) [EFBCC710] (AR v2)
Трек 8 : извлечено точно (доверие 128) [BE483EB5] (AR v2)

Все треки извлечены точно

Конец отчёта

==== Контрольная сумма отчёта 2156CB5928FB6B24FFC604865AFD4E04DEC69596BD62747F54BD72D839BF30C1 ====

REM GENRE Rock
REM DISCID 6A09B708
REM COMMENT “ExactAudioCopy v1.0b3”
CATALOG 0602527015613
PERFORMER “The Rolling Stones”
TITLE “Black And Blue”
FILE “The Rolling Stones – Black And Blue.flac” WAVE
TRACK 01 AUDIO
TITLE “Hot Stuff”
PERFORMER “The Rolling Stones”
ISRC TbCJN7600001
INDEX 01 00:00:00
TRACK 02 AUDIO
TITLE “Hand of Fate”
PERFORMER “The Rolling Stones”
ISRC TbCJN7600002
INDEX 00 05:20:67
INDEX 01 05:21:57
TRACK 03 AUDIO
TITLE “Cherry Oh Baby”
PERFORMER “The Rolling Stones”
ISRC TbCJN7600003
INDEX 01 09:50:15
TRACK 04 AUDIO
TITLE “Memory Motel”
PERFORMER “The Rolling Stones”
ISRC TbCJN7600004
INDEX 00 13:44:30
INDEX 01 13:46:55
TRACK 05 AUDIO
TITLE “Hey Negrita”
PERFORMER “The Rolling Stones”
ISRC TbCJN7600005
INDEX 00 20:54:50
INDEX 01 20:56:45
TRACK 06 AUDIO
TITLE “Melody”
PERFORMER “The Rolling Stones”
ISRC TbCJN7600006
INDEX 01 25:56:25
TRACK 07 AUDIO
TITLE “Fool of Cry”
PERFORMER “The Rolling Stones”
ISRC TbCJN7600007
INDEX 00 31:46:17
INDEX 01 31:46:32
TRACK 08 AUDIO
TITLE “Crazy Mama”
PERFORMER “The Rolling Stones”
ISRC TbCJN7600008
INDEX 00 36:51:62
INDEX 01 36:52:35


Leave a Reply

Your email address will not be published. Required fields are marked *

Enter the text from the image below
 

This site uses Akismet to reduce spam. Learn how your comment data is processed.