The Rolling Stones – Black And Blue (Remastered)




No Cover available

Artist: The Rolling Stones
Year: 1976/1994
Genre: Rock
Notes: Discogs
Add. Notes: Remastered
Watch Songs on: YouTube
Cover incl.: Yes
Encoder: FLAC
Bitrate: ~900 kBit/s (44.1 kHz/16 Bit/s)
Log & Cue incl.: Yes/Yes
Size: 279,8 MB
Password: “slam” (without ” “)


All Downloads/Hosters are compatible

Download 1
KatFile.com
Turbobit.net
Rapidgator.net
FileFactory.com
Download 2
KatFile.com
Turbobit.net
Rapidgator.net
FileFactory.com

Tracklist:

1 Hot Stuff 5:20
2 Hand Of Fate 4:27
3 Cherry Oh Baby 3:53
4 Memory Motel 7:06
5 Hey Negrita 4:57
6 Melody 5:47
7 Fool To Cry 5:04
8 Crazy Mama 4:34

EAC-Log, CUE-Sheed & NFO:

Click to open spoiler
Exact Audio Copy V1.0 beta 3 from 29. August 2011

EAC extraction logfile from 29. April 2014, 16:32

The Rolling Stones / Black And Blue (7243-8-39499-2-2)

Used drive : SONY CD-RW CRX210E1 Adapter: 0 ID: 1

Read mode : Secure
Utilize accurate stream : Yes
Defeat audio cache : Yes
Make use of C2 pointers : No

Read offset correction : 6
Overread into Lead-In and Lead-Out : No
Fill up missing offset samples with silence : Yes
Delete leading and trailing silent blocks : No
Null samples used in CRC calculations : Yes
Used interface : Native Win32 interface for Win NT & 2000

Used output format : User Defined Encoder
Selected bitrate : 768 kBit/s
Quality : High
Add ID3 tag : No
Command line compressor : D:\ПРОГИ\Flac\flac.exe
Additional command line options : -V -8 %source%

TOC of the extracted CD

Track | Start | Length | Start sector | End sector
———————————————————
1 | 0:00.00 | 5:21.55 | 0 | 24129
2 | 5:21.55 | 4:27.70 | 24130 | 44224
3 | 9:49.50 | 3:57.35 | 44225 | 62034
4 | 13:47.10 | 7:09.17 | 62035 | 94226
5 | 20:56.27 | 4:59.35 | 94227 | 116686
6 | 25:55.62 | 5:49.45 | 116687 | 142906
7 | 31:45.32 | 5:05.40 | 142907 | 165821
8 | 36:50.72 | 4:34.45 | 165822 | 186416

Range status and errors

Selected range

Filename I:\Ready.zp\The Rolling Stones – Black And Blue (7243-8-39499-2-2).wav

Peak level 97.7 %
Extraction speed 14.7 X
Range quality 100.0 %
Test CRC 984118D2
Copy CRC 984118D2
Copy OK

No errors occurred

AccurateRip summary

Track 1 accurately ripped (confidence 37) [AB73827D] (AR v2)
Track 2 accurately ripped (confidence 37) [07A58572] (AR v2)
Track 3 accurately ripped (confidence 37) [E7DA6170] (AR v2)
Track 4 accurately ripped (confidence 37) [CB1AA36B] (AR v2)
Track 5 accurately ripped (confidence 37) [FB63A92F] (AR v2)
Track 6 accurately ripped (confidence 37) [80B966CA] (AR v2)
Track 7 accurately ripped (confidence 37) [04A8FC24] (AR v2)
Track 8 accurately ripped (confidence 37) [498F0808] (AR v2)

All tracks accurately ripped

End of status report

==== Log checksum D3BD623B3630D999FE94E81F6D4AF3B557BA63A45CCA83A67770386153B8F603 ====

REM GENRE Rock
REM DATE 1976
REM DISCID 6609B508
REM COMMENT “ExactAudioCopy v1.0b3”
PERFORMER “The Rolling Stones”
TITLE “Black And Blue (7243-8-39499-2-2)”
FILE “The Rolling Stones – Black And Blue (7243-8-39499-2-2).flac” WAVE
TRACK 01 AUDIO
TITLE “Hot Stuff”
PERFORMER “The Rolling Stones”
INDEX 01 00:00:00
TRACK 02 AUDIO
TITLE “Hand Of Fate”
PERFORMER “The Rolling Stones”
INDEX 00 05:20:72
INDEX 01 05:21:55
TRACK 03 AUDIO
TITLE “Cherry Oh Baby”
PERFORMER “The Rolling Stones”
INDEX 00 09:49:40
INDEX 01 09:49:50
TRACK 04 AUDIO
TITLE “Memory Motel”
PERFORMER “The Rolling Stones”
INDEX 00 13:42:72
INDEX 01 13:47:10
TRACK 05 AUDIO
TITLE “Hey Negrita”
PERFORMER “The Rolling Stones”
INDEX 00 20:54:10
INDEX 01 20:56:27
TRACK 06 AUDIO
TITLE “Melody”
PERFORMER “The Rolling Stones”
INDEX 00 25:54:37
INDEX 01 25:55:62
TRACK 07 AUDIO
TITLE “Fool To Cry”
PERFORMER “The Rolling Stones”
INDEX 00 31:43:07
INDEX 01 31:45:32
TRACK 08 AUDIO
TITLE “Crazy Mama”
PERFORMER “The Rolling Stones”
INDEX 00 36:49:45
INDEX 01 36:50:72


Leave a Reply

Your email address will not be published. Required fields are marked *

This site uses Akismet to reduce spam. Learn how your comment data is processed.