The Rolling Stones – Black And Blue (Limited Remastered Japanese Edition)




Image not found

Artist: The Rolling Stones
Year: 1976/2013
Genre: Rock
Notes: Discogs
Add. Notes: Limited Remastered Japanese Edition
Cover incl.: Yes
Encoder: FLAC
Bitrate: ~800 kBit/s (44.1 kHz/16 Bit/s)
Log & Cue incl.: Yes/Yes
Size: 283,5 MB
Password: “slam” (without ” “)


All Downloads/Hosters are compatible

Download 1
KatFile.com
Turbobit.net
FileFactory.com
Rapidgator.net
Download 2
KatFile.com
Turbobit.net
FileFactory.com
Rapidgator.net

Tracklist:

1 Hot Stuff 5:22
2 Hand Of Fate 4:28
3 Cherry Oh Baby 3:57
4 Memory Hotel 7:10
5 Hey Negrita 5:00
6 Melody 5:50
7 Fool To Cry 5:06
8 Crazy Mama 4:35

EAC-Log, CUE-Sheed & NFO:

Click to open spoiler
Exact Audio Copy V1.0 beta 3 from 29. August 2011

EAC extraction logfile from 1. May 2014, 19:36

The Rolling Stones / Black And Blue PT-SHM

Used drive : PLEXTOR BD-R PX-B950SA Adapter: 6 ID: 0

Read mode : Secure
Utilize accurate stream : Yes
Defeat audio cache : Yes
Make use of C2 pointers : No

Read offset correction : 6
Overread into Lead-In and Lead-Out : No
Fill up missing offset samples with silence : Yes
Delete leading and trailing silent blocks : No
Null samples used in CRC calculations : Yes
Used interface : Native Win32 interface for Win NT & 2000

Used output format : Internal WAV Routines
Sample format : 44.100 Hz; 16 Bit; Stereo

TOC of the extracted CD

Track | Start | Length | Start sector | End sector
———————————————————
1 | 0:00.00 | 5:22.40 | 0 | 24189
2 | 5:22.40 | 4:28.30 | 24190 | 44319
3 | 9:50.70 | 3:56.73 | 44320 | 62092
4 | 13:47.68 | 7:11.65 | 62093 | 94482
5 | 20:59.58 | 5:00.10 | 94483 | 116992
6 | 25:59.68 | 5:50.45 | 116993 | 143287
7 | 31:50.38 | 5:06.35 | 143288 | 166272
8 | 36:56.73 | 4:36.45 | 166273 | 187017

Range status and errors

Selected range

Filename C:\Users\Meijin\Desktop\Lossless Galaxy ALLexxess\The Rolling Stones\1976 Black And Blue (Mini LP PT-SHM Universal Japan 2013)\The Rolling Stones – Black And Blue PT-SHM.wav

Peak level 91.2 %
Extraction speed 6.8 X
Range quality 100.0 %
Test CRC 83191F05
Copy CRC 83191F05
Copy OK

No errors occurred

AccurateRip summary

Track 1 accurately ripped (confidence 1) [119D9A01] (AR v2)
Track 2 accurately ripped (confidence 1) [CA65240C] (AR v2)
Track 3 accurately ripped (confidence 1) [6152A77B] (AR v2)
Track 4 accurately ripped (confidence 1) [D8CCD69D] (AR v2)
Track 5 accurately ripped (confidence 1) [32F8BFF3] (AR v2)
Track 6 accurately ripped (confidence 1) [F4D3AB7C] (AR v2)
Track 7 accurately ripped (confidence 1) [5468F71F] (AR v2)
Track 8 accurately ripped (confidence 1) [25CD4F74] (AR v2)

All tracks accurately ripped

End of status report

==== Log checksum 62DAEBD907880CA508AB156D6CAE1C643CA0E72C57FC43D02A67B88318F0C869 ====

REM GENRE “Rock / Rock & Roll / Classic Rock”
REM DATE 1976
REM DISCID 5F09BD08
REM COMMENT “ExactAudioCopy v1.0b3”
PERFORMER “The Rolling Stones”
TITLE “Black And Blue PT-SHM”
FILE “The Rolling Stones – Black And Blue PT-SHM.flac” WAVE
TRACK 01 AUDIO
TITLE “Hot Stuff”
PERFORMER “The Rolling Stones”
INDEX 01 00:00:00
TRACK 02 AUDIO
TITLE “Hand Of Fate”
PERFORMER “The Rolling Stones”
INDEX 00 05:21:69
INDEX 01 05:22:40
TRACK 03 AUDIO
TITLE “Cherry Oh Baby”
PERFORMER “The Rolling Stones”
INDEX 01 09:50:70
TRACK 04 AUDIO
TITLE “Memory Motel”
PERFORMER “The Rolling Stones”
INDEX 00 13:46:64
INDEX 01 13:47:68
TRACK 05 AUDIO
TITLE “Hey Negrita”
PERFORMER “The Rolling Stones”
INDEX 00 20:58:44
INDEX 01 20:59:58
TRACK 06 AUDIO
TITLE “Melody”
PERFORMER “The Rolling Stones”
INDEX 01 25:59:68
TRACK 07 AUDIO
TITLE “Fool To Cry”
PERFORMER “The Rolling Stones”
INDEX 00 31:49:64
INDEX 01 31:50:38
TRACK 08 AUDIO
TITLE “Crazy Mama”
PERFORMER “The Rolling Stones”
INDEX 01 36:56:73


Leave a Reply

Your email address will not be published. Required fields are marked *

Enter the text from the image below
 

This site uses Akismet to reduce spam. Learn how your comment data is processed.