The Rolling Stones – Big Hits (High Tide And Green Grass) (Remastered)




Artist: The Rolling Stones
Year: 1966/2002
Genre: Rock
Notes: Discogs
Add. Notes: Remastered
Cover incl.: Yes
Encoder: FLAC
Bitrate: ~700 kBit/s (44.1 kHz/16 Bit/s)
Log & Cue incl.: Yes
Size: 191,46 MB
Password: “slam” (without ” “)


All Downloads/Hosters are compatible

Download 1
Turbobit.net
KatFile.com
Rapidgator.net
Usersdrive.com
Download 2
Turbobit.net
KatFile.com
Rapidgator.net
Usersdrive.com

Tracklist:

1 - (I Can't Get No) Satisfaction - 3:45
2 - The Last Time - 3:35
3 - As Tears Go By - 2:45
4 - Time Is On My Side - 2:50
5 - It's All Over Now - 3:20
6 - Tell Me - 3:47
7 - 19th Nervous Breakdown - 3:50
8 - Heart Of Stone - 2:49
9 - Get Off Of My Cloud - 2:52
10 - Not Fade Away - 1:48
11 - Good Times, Bad Times - 2:28
12 - Play With Fire - 2:15

EAC-Log, CUE-Sheed & NFO:

Click to open spoiler
Exact Audio Copy V1.0 beta 3 from 29. August 2011

EAC extraction logfile from 16. March 2013, 18:22

The Rolling Stones / Big Hits (High Tide And Green Grass) [ABKCO 844 465-2]

Used drive : PLEXTOR DVDR PX-891SA Adapter: 1 ID: 0

Read mode : Secure
Utilize accurate stream : Yes
Defeat audio cache : Yes
Make use of C2 pointers : No

Read offset correction : 6
Overread into Lead-In and Lead-Out : No
Fill up missing offset samples with silence : Yes
Delete leading and trailing silent blocks : No
Null samples used in CRC calculations : Yes
Used interface : Native Win32 interface for Win NT & 2000

Used output format : User Defined Encoder
Selected bitrate : 1024 kBit/s
Quality : High
Add ID3 tag : No
Command line compressor : C:\Program Files\Exact Audio Copy\Flac\flac.exe
Additional command line options : -V -8 -T “Genre=%genre%” -T “Artist=%artist%” -T “Title=%title%” -T “Album=%albumtitle%” -T “Date=%year%” -T “Tracknumber=%tracknr%” -T “Comment=%comment%” %source%

TOC of the extracted CD

Track | Start | Length | Start sector | End sector
———————————————————
1 | 0:00.33 | 3:47.12 | 33 | 17069
2 | 3:47.45 | 3:43.38 | 17070 | 33832
3 | 7:31.08 | 2:46.50 | 33833 | 46332
4 | 10:17.58 | 2:53.65 | 46333 | 59372
5 | 13:11.48 | 3:30.60 | 59373 | 75182
6 | 16:42.33 | 3:50.42 | 75183 | 92474
7 | 20:33.00 | 3:59.50 | 92475 | 110449
8 | 24:32.50 | 2:49.68 | 110450 | 123192
9 | 27:22.43 | 3:00.10 | 123193 | 136702
10 | 30:22.53 | 1:51.62 | 136703 | 145089
11 | 32:14.40 | 2:35.30 | 145090 | 156744
12 | 34:49.70 | 2:14.45 | 156745 | 166839

Range status and errors

Selected range

Filename H:\dafnaplus\1966 Big Hits US [ABKCO 844465-2]\The Rolling Stones – Big Hits (High Tide And Green Grass) [ABKCO 844 465-2].wav

Peak level 98.6 %
Extraction speed 7.2 X
Range quality 100.0 %
Test CRC 1FC83C0D
Copy CRC 1FC83C0D
Copy OK

No errors occurred

AccurateRip summary

Track 1 accurately ripped (confidence 2) [06C8CAB7] (AR v2)
Track 2 accurately ripped (confidence 2) [94EF8CA7] (AR v2)
Track 3 accurately ripped (confidence 2) [59FC5D2A] (AR v2)
Track 4 accurately ripped (confidence 2) [FDBA25EB] (AR v2)
Track 5 accurately ripped (confidence 2) [27A0CC1C] (AR v2)
Track 6 accurately ripped (confidence 2) [5AEBA2D5] (AR v2)
Track 7 accurately ripped (confidence 2) [4F4C3A59] (AR v2)
Track 8 accurately ripped (confidence 2) [18687D7D] (AR v2)
Track 9 accurately ripped (confidence 2) [2EFAC4C5] (AR v2)
Track 10 accurately ripped (confidence 2) [BEC81652] (AR v2)
Track 11 accurately ripped (confidence 2) [4C7BB56E] (AR v2)
Track 12 accurately ripped (confidence 2) [66C5F31A] (AR v2)

All tracks accurately ripped

End of status report

==== Log checksum 03A0F3EE2765A90B81459184FDA3D9B38E3DE2FDA0C343DE669C279DBB34BF2B ====

REM GENRE Rock
REM DATE 1986
REM DISCID 9B08B00C
REM COMMENT “ExactAudioCopy v1.0b3”
CATALOG 0422844465205
PERFORMER “The Rolling Stones”
TITLE “Big Hits (High Tide And Green Grass) [ABKCO 844 465-2]”
FILE “The Rolling Stones – Big Hits (High Tide And Green Grass) [ABKCO 844 465-2].flac” WAVE
TRACK 01 AUDIO
TITLE “(I Can’t Get No) Satisfaction”
PERFORMER “The Rolling Stones”
ISRC USA176510160
INDEX 00 00:00:00
INDEX 01 00:00:33
TRACK 02 AUDIO
TITLE “The Last Time”
PERFORMER “The Rolling Stones”
ISRC USA176510120
INDEX 00 03:45:55
INDEX 01 03:47:45
TRACK 03 AUDIO
TITLE “As Tears Go By”
PERFORMER “The Rolling Stones”
ISRC USA176510290
INDEX 00 07:29:33
INDEX 01 07:31:08
TRACK 04 AUDIO
TITLE “Time Is On My Side”
PERFORMER “The Rolling Stones”
ISRC USA176410160
INDEX 00 10:15:50
INDEX 01 10:17:58
TRACK 05 AUDIO
TITLE “It’s All Over Now”
PERFORMER “The Rolling Stones”
ISRC USA176410180
INDEX 00 13:09:33
INDEX 01 13:11:48
TRACK 06 AUDIO
TITLE “Tell Me”
PERFORMER “The Rolling Stones”
ISRC USA176410090
INDEX 00 16:39:68
INDEX 01 16:42:33
TRACK 07 AUDIO
TITLE “19th Nervous Breakdown”
PERFORMER “The Rolling Stones”
ISRC USA176610010
INDEX 00 20:30:68
INDEX 01 20:33:00
TRACK 08 AUDIO
TITLE “Heart Of Stone”
PERFORMER “The Rolling Stones”
ISRC USA176510040
INDEX 00 24:30:05
INDEX 01 24:32:50
TRACK 09 AUDIO
TITLE “Get Off Of My Cloud”
PERFORMER “The Rolling Stones”
ISRC USA176510270
INDEX 00 27:20:10
INDEX 01 27:22:43
TRACK 10 AUDIO
TITLE “Not Fade Away”
PERFORMER “The Rolling Stones”
ISRC USA176410010
INDEX 00 30:19:70
INDEX 01 30:22:53
TRACK 11 AUDIO
TITLE “Good Times, Bad Times”
PERFORMER “The Rolling Stones”
ISRC USA176410170
INDEX 00 32:12:33
INDEX 01 32:14:40
TRACK 12 AUDIO
TITLE “Play With Fire”
PERFORMER “The Rolling Stones”
ISRC USA176510190
INDEX 00 34:47:33
INDEX 01 34:49:70


Leave a Reply

Your email address will not be published. Required fields are marked *

This site uses Akismet to reduce spam. Learn how your comment data is processed.