The Rolling Stones – Big Hits (High Tide And Green Grass) (Remastered Japanese Edition)




[Total: 0    Average: 0/5]

Artist: The Rolling Stones
Year: 1966/2002
Genre: Rock
Notes: Discogs
Add. Notes: Remastered Japanese Edition
Cover incl.: Yes
Encoder: FLAC
Bitrate: ~800 kBit/s (44.1 kHz/16 Bit/s)
Log & Cue incl.: Yes
Size: 238 MB
Password: “slam” (without ” “)


All Downloads/Hosters are compatible

Download 1
Share-online.biz
KatFile.com
Rapidgator.net
Mexa.sh
Download 2
Share-online.biz
KatFile.com
Rapidgator.net
Mexa.sh

Tracklist:

1. (I Can't Get No) Satisfaction 
(3:43)
2. The Last Time (3:41)
3. As Tears Go By (2:45)
4. Time Is On My Side (2:59)
5. It's All Over Now (3:27)
6. Tell Me (3:47)
7. 19th Nervous Breakdown (3:56)
8. Heart Of Stone (2:49)
9. Get Off Of My Cloud (2:55)
10. Not Fade Away (1:47)
11. Good Times, Bad Times (2:30)
12. Play With Fire (2:13)

EAC-Log, CUE-Sheed & NFO:

Click to open spoiler
Exact Audio Copy V1.0 beta 3 from 29. August 2011

EAC extraction logfile from 12. March 2013, 12:31

The Rolling Stones / Big Hits (High Tide & Green Grass) (SACD-Hybrid)

Used drive : HL-DT-STDVD+-RW GH50N Adapter: 0 ID: 1

Read mode : Secure
Utilize accurate stream : Yes
Defeat audio cache : Yes
Make use of C2 pointers : No

Read offset correction : 667
Overread into Lead-In and Lead-Out : No
Fill up missing offset samples with silence : Yes
Delete leading and trailing silent blocks : No
Null samples used in CRC calculations : Yes
Used interface : Native Win32 interface for Win NT & 2000

Used output format : User Defined Encoder
Selected bitrate : 768 kBit/s
Quality : High
Add ID3 tag : No
Command line compressor : C:\Program Files (x86)\Exact Audio Copy\FLAC\FLAC.EXE
Additional command line options : -V -8 -T “Date=%year%” -T “Genre=%genre%” %source%

TOC of the extracted CD

Track | Start | Length | Start sector | End sector
———————————————————
1 | 0:00.00 | 3:44.32 | 0 | 16831
2 | 3:44.32 | 3:42.48 | 16832 | 33529
3 | 7:27.05 | 2:46.42 | 33530 | 46021
4 | 10:13.47 | 3:01.00 | 46022 | 59596
5 | 13:14.47 | 3:27.28 | 59597 | 75149
6 | 16:42.00 | 3:49.17 | 75150 | 92341
7 | 20:31.17 | 3:58.58 | 92342 | 110249
8 | 24:30.00 | 2:52.22 | 110250 | 123171
9 | 27:22.22 | 2:56.63 | 123172 | 136434
10 | 30:19.10 | 1:49.27 | 136435 | 144636
11 | 32:08.37 | 2:32.05 | 144637 | 156041
12 | 34:40.42 | 2:13.25 | 156042 | 166041

Range status and errors

Selected range

Filename C:\222\SACD\1966 – Big Hits (US)\The Rolling Stones – Big Hits (High Tide & Green Grass) (SACD-Hybrid).wav

Peak level 99.8 %
Extraction speed 2.9 X
Range quality 100.0 %
Test CRC A95A411B
Copy CRC A95A411B
Copy OK

No errors occurred

AccurateRip summary

Track 1 accurately ripped (confidence 4) [8E7C6604] (AR v2)
Track 2 accurately ripped (confidence 4) [90B8BB17] (AR v2)
Track 3 accurately ripped (confidence 4) [C4622C17] (AR v2)
Track 4 accurately ripped (confidence 4) [EC6D4816] (AR v2)
Track 5 accurately ripped (confidence 4) [4B94DBA0] (AR v2)
Track 6 accurately ripped (confidence 4) [01B0CEC0] (AR v2)
Track 7 accurately ripped (confidence 4) [B1A4921B] (AR v2)
Track 8 accurately ripped (confidence 4) [2A563CEF] (AR v2)
Track 9 accurately ripped (confidence 4) [2B6199A1] (AR v2)
Track 10 accurately ripped (confidence 4) [1AA94F45] (AR v2)
Track 11 accurately ripped (confidence 4) [03C75344] (AR v2)
Track 12 accurately ripped (confidence 4) [92AB47D8] (AR v2)

All tracks accurately ripped

End of status report

==== Log checksum 725DFAF7DC9C4AB4071AE2378076ABB9B11D6D72192770953D8DA64A29E9E8FE ====

REM DATE 1966
REM DISCID 8F08A50C
REM COMMENT “ExactAudioCopy v1.0b3”
PERFORMER “The Rolling Stones”
TITLE “Big Hits (High Tide & Green Grass) (SACD-Hybrid)”
FILE “The Rolling Stones – Big Hits (High Tide & Green Grass) (SACD-Hybrid).flac” WAVE
TRACK 01 AUDIO
TITLE “(I Can’t Get No) Satisfaction”
PERFORMER “The Rolling Stones”
ISRC USA176510160
INDEX 01 00:00:00
TRACK 02 AUDIO
TITLE “The Last Time”
PERFORMER “The Rolling Stones”
ISRC USA176510120
INDEX 00 03:43:01
INDEX 01 03:44:32
TRACK 03 AUDIO
TITLE “As Tears Go By”
PERFORMER “The Rolling Stones”
ISRC USA176510290
INDEX 00 07:25:72
INDEX 01 07:27:05
TRACK 04 AUDIO
TITLE “Time Is On My Side”
PERFORMER “The Rolling Stones”
ISRC USA176410330
INDEX 00 10:12:26
INDEX 01 10:13:47
TRACK 05 AUDIO
TITLE “It’s All Over Now”
PERFORMER “The Rolling Stones”
ISRC USA176410180
INDEX 00 13:12:10
INDEX 01 13:14:47
TRACK 06 AUDIO
TITLE “Tell Me”
PERFORMER “The Rolling Stones”
ISRC USA176410090
INDEX 00 16:41:10
INDEX 01 16:42:00
TRACK 07 AUDIO
TITLE “19th Nervous Breakdown”
PERFORMER “The Rolling Stones”
ISRC USA176610010
INDEX 00 20:29:30
INDEX 01 20:31:17
TRACK 08 AUDIO
TITLE “Heart Of Stone”
PERFORMER “The Rolling Stones”
ISRC USA176510040
INDEX 00 24:27:61
INDEX 01 24:30:00
TRACK 09 AUDIO
TITLE “Get Off Of My Cloud”
PERFORMER “The Rolling Stones”
ISRC USA176510270
INDEX 00 27:19:11
INDEX 01 27:22:22
TRACK 10 AUDIO
TITLE “Not Fade Away”
PERFORMER “The Rolling Stones”
ISRC USA176410010
INDEX 00 30:17:32
INDEX 01 30:19:10
TRACK 11 AUDIO
TITLE “Good Times, Bad Times”
PERFORMER “The Rolling Stones”
ISRC USA176410170
INDEX 00 32:06:57
INDEX 01 32:08:37
TRACK 12 AUDIO
TITLE “Play With Fire”
PERFORMER “The Rolling Stones”
ISRC USA176510190
INDEX 00 34:38:55
INDEX 01 34:40:42


Spread the Download

Leave a Reply

Your email address will not be published. Required fields are marked *

Enter the text from the image below
 

This site uses Akismet to reduce spam. Learn how your comment data is processed.