The Rolling Stones – Between The Buttons (Japanese Edition)




[Total: 0    Average: 0/5]

Artist: The Rolling Stones
Year: 1967/1989
Genre: Rock
Notes: Discogs
Add. Notes: Japanese Edition
Cover incl.: Yes
Encoder: FLAC
Bitrate: ~800 kBit/s (44.1 kHz/16 Bit/s)
Log & Cue incl.: Yes
Size: 288,7 MB
Password: “slam” (without ” “)


All Downloads/Hosters are compatible

Download 1
KatFile.com
Turbobit.net
FileFactory.com
Rapidgator.net
Download 2
KatFile.com
Turbobit.net
FileFactory.com
Rapidgator.net
Download 3
KatFile.com
Turbobit.net
FileFactory.com
Rapidgator.net

Tracklist:

1 Let's Spend The Night Together 3:22
2 Yesterday's Paper 2:20
3 Ruby Tuesday 3:14
4 Connection 2:13
5 She Smiled Sweetly 2:42
6 Cool Calm And Collected 4:15
7 All Sold Out 2:15
8 My Obsession 3:20
9 Who's Been Sleeping Here 3:51
10 Complicated 3:18
11 Miss Amanda Jones 2:48
12 Something Happened To Me Yesterday 4:58

EAC-Log, CUE-Sheed & NFO:

Click to open spoiler
Exact Audio Copy V1.0 beta 3 from 29. August 2011

EAC extraction logfile from 7. April 2013, 9:21

The Rolling Stones / Between The Buttons US (P25L 25040)

Used drive : PLEXTOR DVDR PX-891SA Adapter: 1 ID: 0

Read mode : Secure
Utilize accurate stream : Yes
Defeat audio cache : Yes
Make use of C2 pointers : No

Read offset correction : 6
Overread into Lead-In and Lead-Out : No
Fill up missing offset samples with silence : Yes
Delete leading and trailing silent blocks : No
Null samples used in CRC calculations : Yes
Used interface : Native Win32 interface for Win NT & 2000

Used output format : User Defined Encoder
Selected bitrate : 1024 kBit/s
Quality : High
Add ID3 tag : No
Command line compressor : C:\Program Files\Exact Audio Copy\Flac\flac.exe
Additional command line options : -V -8 -T “Genre=%genre%” -T “Artist=%artist%” -T “Title=%title%” -T “Album=%albumtitle%” -T “Date=%year%” -T “Tracknumber=%tracknr%” -T “Comment=%comment%” %source%

TOC of the extracted CD

Track | Start | Length | Start sector | End sector
———————————————————
1 | 0:00.37 | 3:40.25 | 37 | 16561
2 | 3:40.62 | 2:05.63 | 16562 | 25999
3 | 5:46.50 | 3:18.40 | 26000 | 40889
4 | 9:05.15 | 2:09.15 | 40890 | 50579
5 | 11:14.30 | 2:44.02 | 50580 | 62881
6 | 13:58.32 | 4:14.40 | 62882 | 81971
7 | 18:12.72 | 2:16.25 | 81972 | 92196
8 | 20:29.22 | 3:17.35 | 92197 | 107006
9 | 23:46.57 | 3:51.43 | 107007 | 124374
10 | 27:38.25 | 3:11.72 | 124375 | 138771
11 | 30:50.22 | 2:43.50 | 138772 | 151046
12 | 33:33.72 | 4:53.58 | 151047 | 173079

Range status and errors

Selected range

Filename H:\dafnaplus\The Rolling Stones – Between The Buttons US (P25L 25040)\The Rolling Stones – Between The Buttons US (P25L 25040).wav

Peak level 76.5 %
Extraction speed 7.2 X
Range quality 99.9 %
Test CRC 09C2B8F5
Copy CRC 09C2B8F5
Copy OK

No errors occurred

AccurateRip summary

Track 1 not present in database
Track 2 not present in database
Track 3 not present in database
Track 4 not present in database
Track 5 not present in database
Track 6 not present in database
Track 7 not present in database
Track 8 not present in database
Track 9 not present in database
Track 10 not present in database
Track 11 not present in database
Track 12 not present in database

None of the tracks are present in the AccurateRip database

End of status report

==== Log checksum 692D872C503946C3A5737EFDBF642268E72BE6865097AD92818487BBDF957615 ====

REM GENRE Rock
REM DATE 1989
REM DISCID 8F09030C
REM COMMENT “ExactAudioCopy v1.0b3”
CATALOG 0000000000000
PERFORMER “The Rolling Stones”
TITLE “Between The Buttons US (P25L 25040)”
FILE “The Rolling Stones – Between The Buttons US (P25L 25040).flac” WAVE
TRACK 01 AUDIO
TITLE “Let’s Spend The Night Together”
PERFORMER “The Rolling Stones”
INDEX 00 00:00:00
INDEX 01 00:00:37
TRACK 02 AUDIO
TITLE “Yesterday’s Papers”
PERFORMER “The Rolling Stones”
INDEX 00 03:39:16
INDEX 01 03:40:62
TRACK 03 AUDIO
TITLE “Ruby Tuesday”
PERFORMER “The Rolling Stones”
INDEX 00 05:44:73
INDEX 01 05:46:50
TRACK 04 AUDIO
TITLE “Connection”
PERFORMER “The Rolling Stones”
INDEX 00 09:03:53
INDEX 01 09:05:15
TRACK 05 AUDIO
TITLE “She Smiled Sweetly”
PERFORMER “The Rolling Stones”
INDEX 00 11:12:63
INDEX 01 11:14:30
TRACK 06 AUDIO
TITLE “Cool, Calm, & Collected”
PERFORMER “The Rolling Stones”
INDEX 00 13:56:33
INDEX 01 13:58:32
TRACK 07 AUDIO
TITLE “All Sold Out”
PERFORMER “The Rolling Stones”
INDEX 00 18:10:58
INDEX 01 18:12:72
TRACK 08 AUDIO
TITLE “My Obsession”
PERFORMER “The Rolling Stones”
INDEX 00 20:27:13
INDEX 01 20:29:22
TRACK 09 AUDIO
TITLE “Who’s Been Sleeping Here?”
PERFORMER “The Rolling Stones”
INDEX 00 23:45:03
INDEX 01 23:46:57
TRACK 10 AUDIO
TITLE “Complicated”
PERFORMER “The Rolling Stones”
INDEX 00 27:36:28
INDEX 01 27:38:25
TRACK 11 AUDIO
TITLE “Miss Amanda Jones”
PERFORMER “The Rolling Stones”
INDEX 00 30:48:21
INDEX 01 30:50:22
TRACK 12 AUDIO
TITLE “Something Happened To Me Yesterday”
PERFORMER “The Rolling Stones”
INDEX 00 33:31:68
INDEX 01 33:33:72


Spread the Download

Leave a Reply

Your email address will not be published. Required fields are marked *

Enter the text from the image below
 

This site uses Akismet to reduce spam. Learn how your comment data is processed.