The Rolling Stones – Beggars Banquet (Remastered)




Artist: The Rolling Stones
Year: 1968/2018
Genre: Rock
Notes: Discogs
Add. Notes: Remastered
Cover incl.: Yes
Encoder: FLAC
Bitrate: ~900 kBit/s (44.1 kHz/16 Bit/s)
Log & Cue incl.: Yes
Size: 277,62 MB
Password: “slam” (without ” “)


All Downloads/Hosters are compatible

Download 1
Turbobit.net
Rapidgator.net
KatFile.com
UploadRar.com
Download 2
Turbobit.net
Rapidgator.net
KatFile.com
UploadRar.com

Tracklist:

1. Sympathy For The Devil
2. No Expectations
3. Dear Doctor
4. Parachute Woman
5. Jig-Saw Puzzle 
6. Street Fighting Man
7. Prodigal Son
8. Stray Cat Blues
9. Factory Girl
10. Salt Of The Earth

EAC-Log, CUE-Sheed & NFO:

Click to open spoiler
Exact Audio Copy V1.0 beta 6 from 9. April 2015

EAC extraction logfile from 21. December 2018, 16:15

The Rolling Stones / Beggars Banquet

Used drive : ATAPI iHAS122 C Adapter: 1 ID: 0

Read mode : Secure
Utilize accurate stream : Yes
Defeat audio cache : Yes
Make use of C2 pointers : No

Read offset correction : 6
Overread into Lead-In and Lead-Out : No
Fill up missing offset samples with silence : Yes
Delete leading and trailing silent blocks : No
Null samples used in CRC calculations : Yes
Used interface : Native Win32 interface for Win NT & 2000

Used output format : Internal WAV Routines
Sample format : 44.100 Hz; 16 Bit; Stereo

TOC of the extracted CD

Track | Start | Length | Start sector | End sector
———————————————————
1 | 0:00.00 | 6:18.58 | 0 | 28407
2 | 6:18.58 | 3:57.01 | 28408 | 46183
3 | 10:15.59 | 3:22.01 | 46184 | 61334
4 | 13:37.60 | 2:20.06 | 61335 | 71840
5 | 15:57.66 | 6:06.61 | 71841 | 99351
6 | 22:04.52 | 3:15.16 | 99352 | 113992
7 | 25:19.68 | 2:52.04 | 113993 | 126896
8 | 28:11.72 | 4:37.69 | 126897 | 147740
9 | 32:49.66 | 2:09.69 | 147741 | 157484
10 | 34:59.60 | 4:53.23 | 157485 | 179482

Range status and errors

Selected range

Filename C:\Users\London\Desktop\The Rolling Stones – Beggars Banquet.wav

Peak level 100.0 %
Extraction speed 7.8 X
Range quality 100.0 %
Copy CRC C5BBD6FE
Copy OK

No errors occurred

AccurateRip summary

Track 1 not present in database
Track 2 not present in database
Track 3 not present in database
Track 4 not present in database
Track 5 not present in database
Track 6 not present in database
Track 7 not present in database
Track 8 not present in database
Track 9 not present in database
Track 10 not present in database

None of the tracks are present in the AccurateRip database

End of status report

—- CUETools DB Plugin V2.1.6

[CTDB TOCID: 3ln8BHiV1Bk6vNKwHjpL7sK5uUE-] found
Submit result: 3ln8BHiV1Bk6vNKwHjpL7sK5uUE- has been confirmed
Track | CTDB Status
1 | (27/27) Accurately ripped
2 | (27/27) Accurately ripped
3 | (27/27) Accurately ripped
4 | (27/27) Accurately ripped
5 | (27/27) Accurately ripped
6 | (27/27) Accurately ripped
7 | (27/27) Accurately ripped
8 | (27/27) Accurately ripped
9 | (27/27) Accurately ripped
10 | (27/27) Accurately ripped

==== Log checksum B099E2954FE208DCDDD763F2AFDE231C5B79CAB20AF7EE5A9D23B7290418C059 ====

REM GENRE Rock
REM DATE 2018
REM DISCID 8209590A
REM COMMENT “ExactAudioCopy v1.0b6”
PERFORMER “The Rolling Stones”
TITLE “Beggars Banquet”
FILE “The Rolling Stones – Beggars Banquet.flac” WAVE
TRACK 01 AUDIO
TITLE “Sympathy For The Devil”
PERFORMER “The Rolling Stones”
INDEX 01 00:00:00
TRACK 02 AUDIO
TITLE “No Expectations”
PERFORMER “The Rolling Stones”
INDEX 01 06:18:58
TRACK 03 AUDIO
TITLE “Dear Doctor”
PERFORMER “The Rolling Stones”
INDEX 01 10:15:59
TRACK 04 AUDIO
TITLE “Parachute Woman”
PERFORMER “The Rolling Stones”
INDEX 01 13:37:60
TRACK 05 AUDIO
TITLE “Jigsaw Puzzle”
PERFORMER “The Rolling Stones”
INDEX 01 15:57:66
TRACK 06 AUDIO
TITLE “Street Fighting Man”
PERFORMER “The Rolling Stones”
INDEX 01 22:04:52
TRACK 07 AUDIO
TITLE “Prodigal Son”
PERFORMER “The Rolling Stones”
INDEX 01 25:19:68
TRACK 08 AUDIO
TITLE “Stray Cat Blues”
PERFORMER “The Rolling Stones”
INDEX 01 28:11:72
TRACK 09 AUDIO
TITLE “Factory Girl”
PERFORMER “The Rolling Stones”
INDEX 01 32:49:66
TRACK 10 AUDIO
TITLE “Salt Of The Earth”
PERFORMER “The Rolling Stones”
INDEX 01 34:59:60


Leave a Reply

Your email address will not be published. Required fields are marked *

This site uses Akismet to reduce spam. Learn how your comment data is processed.