The Rolling Stones – Beggars Banquet (Remastered Japanese Edition)




[Total: 0    Average: 0/5]

Artist: The Rolling Stones
Year: 1968/2002
Genre: Rock
Notes: Discogs
Add. Notes: Remastered Japanese Edition
Cover incl.: Yes
Encoder: FLAC
Bitrate: ~1000 kBit/s (44.1 kHz/16 Bit/s)
Log & Cue incl.: Yes
Size: 271 MB
Password: “slam” (without ” “)


All Downloads/Hosters are compatible

Download 1
KatFile.com
Rapidgator.net
NitroFlare.com
Share-online.biz
Download 2
KatFile.com
Rapidgator.net
NitroFlare.com
Share-online.biz

Tracklist:

1. Sympathy For The Devil (6:17)
2. No Expectations (3:56)
3. Dear Doctor (3:21)
4. Parachute Woman (2:20)
5. Jigsaw Puzzle (6:05)
6. Street Fighting Man (3:15)
7. Prodigal Son (2:51)
8. Stray Cat Blues (4:37)
9. Factory Girl (2:08)
10. Salt Of The Earth (4:47)

EAC-Log, CUE-Sheed & NFO:

Click to open spoiler
Exact Audio Copy V1.0 beta 3 from 29. August 2011

EAC extraction logfile from 12. March 2013, 12:00

The Rolling Stones / Beggars Banquet (SACD-Hybrid)

Used drive : HL-DT-STDVD+-RW GH50N Adapter: 0 ID: 1

Read mode : Secure
Utilize accurate stream : Yes
Defeat audio cache : Yes
Make use of C2 pointers : No

Read offset correction : 667
Overread into Lead-In and Lead-Out : No
Fill up missing offset samples with silence : Yes
Delete leading and trailing silent blocks : No
Null samples used in CRC calculations : Yes
Used interface : Native Win32 interface for Win NT & 2000

Used output format : User Defined Encoder
Selected bitrate : 768 kBit/s
Quality : High
Add ID3 tag : No
Command line compressor : C:\Program Files (x86)\Exact Audio Copy\FLAC\FLAC.EXE
Additional command line options : -V -8 -T “Date=%year%” -T “Genre=%genre%” %source%

TOC of the extracted CD

Track | Start | Length | Start sector | End sector
———————————————————
1 | 0:00.00 | 6:18.42 | 0 | 28391
2 | 6:18.42 | 3:56.55 | 28392 | 46146
3 | 10:15.22 | 3:22.35 | 46147 | 61331
4 | 13:37.57 | 2:20.48 | 61332 | 71879
5 | 15:58.30 | 6:06.02 | 71880 | 99331
6 | 22:04.32 | 3:16.10 | 99332 | 114041
7 | 25:20.42 | 2:52.10 | 114042 | 126951
8 | 28:12.52 | 4:37.68 | 126952 | 147794
9 | 32:50.45 | 2:09.35 | 147795 | 157504
10 | 35:00.05 | 4:47.35 | 157505 | 179064

Range status and errors

Selected range

Filename C:\222\SACD\1968 – Beggars Banquet\The Rolling Stones – Beggars Banquet (SACD-Hybrid).wav

Peak level 99.8 %
Extraction speed 2.9 X
Range quality 100.0 %
Test CRC 850A3EA5
Copy CRC 850A3EA5
Copy OK

No errors occurred

AccurateRip summary

Track 1 accurately ripped (confidence 6) [C34B3809] (AR v2)
Track 2 accurately ripped (confidence 6) [0384EA53] (AR v2)
Track 3 accurately ripped (confidence 6) [AD819979] (AR v2)
Track 4 accurately ripped (confidence 6) [5CC4E48D] (AR v2)
Track 5 accurately ripped (confidence 6) [E3095512] (AR v2)
Track 6 accurately ripped (confidence 6) [A5624EDD] (AR v2)
Track 7 accurately ripped (confidence 6) [5FFDD232] (AR v2)
Track 8 accurately ripped (confidence 6) [21DC877D] (AR v2)
Track 9 accurately ripped (confidence 6) [F7A87031] (AR v2)
Track 10 accurately ripped (confidence 6) [2F8B13DB] (AR v2)

All tracks accurately ripped

End of status report

==== Log checksum D5FCDD98782226BB66B779FAC22AFCD9A56D5E97C0109FC1C5434B5E1985F430 ====

REM GENRE Rock
REM DATE 1968
REM DISCID 7E09530A
REM COMMENT “ExactAudioCopy v1.0b3”
PERFORMER “The Rolling Stones”
TITLE “Beggars Banquet (SACD-Hybrid)”
FILE “The Rolling Stones – Beggars Banquet (SACD-Hybrid).flac” WAVE
TRACK 01 AUDIO
TITLE “Sympathy For The Devil”
PERFORMER “The Rolling Stones”
ISRC USA176810010
INDEX 01 00:00:00
TRACK 02 AUDIO
TITLE “No Expectations”
PERFORMER “The Rolling Stones”
ISRC USA176810020
INDEX 00 06:17:57
INDEX 01 06:18:42
TRACK 03 AUDIO
TITLE “Dear Doctor”
PERFORMER “The Rolling Stones”
ISRC USA176810030
INDEX 00 10:14:37
INDEX 01 10:15:22
TRACK 04 AUDIO
TITLE “Parachute Woman”
PERFORMER “The Rolling Stones”
ISRC USA176810040
INDEX 00 13:36:67
INDEX 01 13:37:57
TRACK 05 AUDIO
TITLE “Jigsaw Puzzle”
PERFORMER “The Rolling Stones”
ISRC USA176810050
INDEX 00 15:57:52
INDEX 01 15:58:30
TRACK 06 AUDIO
TITLE “Street Fighting Man”
PERFORMER “The Rolling Stones”
ISRC USA176810060
INDEX 00 22:03:62
INDEX 01 22:04:32
TRACK 07 AUDIO
TITLE “Prodigal Son”
PERFORMER “The Rolling Stones”
ISRC USA176810070
INDEX 00 25:19:15
INDEX 01 25:20:42
TRACK 08 AUDIO
TITLE “Stray Cat Blues”
PERFORMER “The Rolling Stones”
ISRC USA176810080
INDEX 00 28:11:10
INDEX 01 28:12:52
TRACK 09 AUDIO
TITLE “Factory Girl”
PERFORMER “The Rolling Stones”
ISRC USA176810090
INDEX 00 32:49:62
INDEX 01 32:50:45
TRACK 10 AUDIO
TITLE “Salt Of The Earth”
PERFORMER “The Rolling Stones”
ISRC USA176810100
INDEX 00 34:58:62
INDEX 01 35:00:05


Spread the Download

Leave a Reply

Your email address will not be published. Required fields are marked *

Enter the text from the image below
 

This site uses Akismet to reduce spam. Learn how your comment data is processed.