The Rolling Stones – Beggars Banquet (Remastered)




Artist: The Rolling Stones
Year: 1968/1984
Genre: Rock
Notes: Discogs
Add. Notes: Remastered
Cover incl.: Yes
Encoder: FLAC
Bitrate: ~800 kBit/s (44.1 kHz/16 Bit/s)
Log & Cue incl.: Yes
Size: 250 MB
Password: “slam” (without ” “)


All Downloads/Hosters are compatible

Download 1
KatFile.com
Turbobit.net
Rapidgator.net
Download 2
KatFile.com
Turbobit.net
Rapidgator.net

Tracklist:

1 - Sympathy For The Devil - 6:27
2 - No Expectations - 4:02
3 - Dear Doctor - 3:27
4 - Parachute Woman - 2:24
5 - Jig-Saw Puzzle - 6:17
6 - Street Fighting Man - 3:18
7 - Prodigal Son - 2:55
8 - Stray Cat Blues - 4:41
9 - Factory Girl - 2:12
10 - Salt Of The Earth - 4:51

EAC-Log, CUE-Sheed & NFO:

Click to open spoiler
Exact Audio Copy V1.0 beta 3 from 29. August 2011

EAC extraction logfile from 27. June 2013, 0:10

The Rolling Stones / Beggars Banquet

Used drive : _NEC DVD+-RW ND-6500A Adapter: 1 ID: 0

Read mode : Secure
Utilize accurate stream : Yes
Defeat audio cache : Yes
Make use of C2 pointers : No

Read offset correction : 48
Overread into Lead-In and Lead-Out : No
Fill up missing offset samples with silence : Yes
Delete leading and trailing silent blocks : No
Null samples used in CRC calculations : Yes
Used interface : Native Win32 interface for Win NT & 2000

Used output format : User Defined Encoder
Selected bitrate : 768 kBit/s
Quality : High
Add ID3 tag : No
Command line compressor : C:\Program Files\Exact Audio Copy\FLAC\FLAC.EXE
Additional command line options : -V -8 -T “Date=%year%” -T “Genre=%genre%” %source%

TOC of the extracted CD

Track | Start | Length | Start sector | End sector
———————————————————
1 | 0:00.32 | 6:27.05 | 32 | 29061
2 | 6:27.37 | 4:02.35 | 29062 | 47246
3 | 10:29.72 | 3:27.00 | 47247 | 62771
4 | 13:56.72 | 2:23.48 | 62772 | 73544
5 | 16:20.45 | 6:17.17 | 73545 | 101836
6 | 22:37.62 | 3:18.10 | 101837 | 116696
7 | 25:55.72 | 2:55.35 | 116697 | 129856
8 | 28:51.32 | 4:40.68 | 129857 | 150924
9 | 33:32.25 | 2:12.20 | 150925 | 160844
10 | 35:44.45 | 4:51.02 | 160845 | 182671

Range status and errors

Selected range

Filename E:\RUTRA\1968 – Beggars Banquet\The Rolling Stones – Beggars Banquet.wav

Peak level 86.5 %
Extraction speed 2.8 X
Range quality 100.0 %
Test CRC 62A571AE
Copy CRC 62A571AE
Copy OK

No errors occurred

AccurateRip summary

Track 1 accurately ripped (confidence 5) [F98D179B] (AR v2)
Track 2 accurately ripped (confidence 5) [0578E721] (AR v2)
Track 3 accurately ripped (confidence 5) [7E865EEE] (AR v2)
Track 4 accurately ripped (confidence 5) [16D2C0E4] (AR v2)
Track 5 accurately ripped (confidence 5) [9E3EBD93] (AR v2)
Track 6 accurately ripped (confidence 5) [80D80C35] (AR v2)
Track 7 accurately ripped (confidence 5) [6F80BF2A] (AR v2)
Track 8 accurately ripped (confidence 5) [A3EF2EC1] (AR v2)
Track 9 accurately ripped (confidence 5) [A543A8A3] (AR v2)
Track 10 accurately ripped (confidence 5) [DC8A0B47] (AR v2)

All tracks accurately ripped

End of status report

==== Log checksum 864890AC239F7FAAD0863873BE6E978D7FBD3F8C26E90B65E0914EA4A2110CE0 ====

REM GENRE Rock
REM DATE 1968
REM DISCID 8C09830A
REM COMMENT “ExactAudioCopy v1.0b3”
CATALOG 3259180008420
PERFORMER “The Rolling Stones”
TITLE “Beggars Banquet”
FILE “The Rolling Stones – Beggars Banquet.flac” WAVE
TRACK 01 AUDIO
TITLE “Sympathy For The Devil”
PERFORMER “The Rolling Stones”
ISRC USA176800010
INDEX 00 00:00:00
INDEX 01 00:00:32
TRACK 02 AUDIO
TITLE “No Expectations”
PERFORMER “The Rolling Stones”
ISRC USA176800020
INDEX 00 06:25:37
INDEX 01 06:27:37
TRACK 03 AUDIO
TITLE “Dear Doctor”
PERFORMER “The Rolling Stones”
ISRC USA176800030
INDEX 00 10:27:72
INDEX 01 10:29:72
TRACK 04 AUDIO
TITLE “Parachute Woman”
PERFORMER “The Rolling Stones”
ISRC USA176800040
INDEX 00 13:54:72
INDEX 01 13:56:72
TRACK 05 AUDIO
TITLE “Jig-Saw Puzzle”
PERFORMER “The Rolling Stones”
ISRC USA176800050
INDEX 00 16:18:45
INDEX 01 16:20:45
TRACK 06 AUDIO
TITLE “Street Fighting Man”
PERFORMER “The Rolling Stones”
ISRC USA176800060
INDEX 00 22:35:62
INDEX 01 22:37:62
TRACK 07 AUDIO
TITLE “Prodigal Son”
PERFORMER “The Rolling Stones”
ISRC USA176800070
INDEX 00 25:53:72
INDEX 01 25:55:72
TRACK 08 AUDIO
TITLE “Stray Cat Blues”
PERFORMER “The Rolling Stones”
ISRC USA176800080
INDEX 00 28:49:32
INDEX 01 28:51:32
TRACK 09 AUDIO
TITLE “Factory Girl”
PERFORMER “The Rolling Stones”
ISRC USA176800090
INDEX 00 33:30:25
INDEX 01 33:32:25
TRACK 10 AUDIO
TITLE “Salt of The Earth”
PERFORMER “The Rolling Stones”
ISRC USA176800100
INDEX 00 35:42:45
INDEX 01 35:44:45


Leave a Reply

Your email address will not be published. Required fields are marked *

This site uses Akismet to reduce spam. Learn how your comment data is processed.