The Rolling Stones – Beggars Banquet (Japanese Edition)




No Cover available

Artist: The Rolling Stones
Year: 1968/1989
Genre: Rock
Notes: Discogs
Add. Notes: Japanese Edition
Watch Songs on: YouTube
Cover incl.: Yes
Encoder: FLAC
Bitrate: ~900 kBit/s (44.1 kHz/16 Bit/s)
Log & Cue incl.: Yes/Yes
Size: 265,7 MB
Password: “slam” (without ” “)


All Downloads/Hosters are compatible

Download 1
KatFile.com
Turbobit.net
Rapidgator.net
FileFactory.com
Download 2
KatFile.com
Turbobit.net
Rapidgator.net
FileFactory.com

Tracklist:

1 Sympathy For The Devil 6:14
2 No Expectations 3:52
3 Dear Doctor 3:19
4 Parachute Woman 2:17
5 Jig-Saw Puzzle 6:07
6 Street Fighting Man 3:10
7 Prodigal Son 2:47
8 Stray Cat Blues 4:32
9 Factory Girl 2:06
10 Salt Of The Earth 4:43

EAC-Log, CUE-Sheed & NFO:

Click to open spoiler
Exact Audio Copy V1.0 beta 3 from 29. August 2011

Отчёт EAC об извлечении, выполненном 28. апреля 2015, 0:02

The Rolling Stones / Beggars Banquet

Дисковод: ATAPI iHES108 2 Adapter: 3 ID: 1

Режим чтения : Достоверность
Использование точного потока : Да
Отключение кэша аудио : Да
Использование указателей C2 : Нет

Коррекция смещения при чтении : 6
Способность читать области Lead-in и Lead-out : Нет
Заполнение пропущенных сэмплов тишиной : Да
Удаление блоков с тишиной в начале и конце : Нет
При вычислениях CRC использовались нулевые сэмплы : Да
Интерфейс : Встроенный Win32-интерфейс для Win NT/2000

Выходной формат : Пользовательский кодировщик
Выбранный битрейт : 1024 kBit/s
Качество : Высокий
Добавление ID3-тега : Нет
Утилита сжатия : C:\Program Files\Exact Audio Copy\Flac\flac.exe
Дополнительные параметры : -V -8 -T “Date=%year%” -T “Genre=%genre%” %source%

TOC извлечённого CD

Трек | Старт | Длительность | Начальный сектор | Конечный сектор
———————————————————————
1 | 0:00.37 | 6:28.67 | 37 | 29203
2 | 6:29.29 | 4:05.13 | 29204 | 47591
3 | 10:34.42 | 3:30.17 | 47592 | 63358
4 | 14:04.59 | 2:26.58 | 63359 | 74366
5 | 16:31.42 | 6:21.45 | 74367 | 102986
6 | 22:53.12 | 3:20.35 | 102987 | 118021
7 | 26:13.47 | 2:56.17 | 118022 | 131238
8 | 29:09.64 | 4:43.43 | 131239 | 152506
9 | 33:53.32 | 2:13.50 | 152507 | 162531
10 | 36:07.07 | 4:53.22 | 162532 | 184528

Характеристики диапазона извлечения и сообщения об ошибках

Выбранный диапазон

Имя файла D:\EAC-FOLDER\The Rolling Stones – Beggars Banquet P25L\The Rolling Stones – Beggars Banquet P25L\The Rolling Stones – Beggars Banquet.wav

Пиковый уровень 93.1 %
Скорость извлечения 8.0 X
Качество диапазона 100.0 %
CRC теста AAEE228C
CRC копии AAEE228C
Копирование… OK

Ошибок не произошло

AccurateRip: сводка

Трек 1 : извлечено точно (доверие 1) [72171856] (AR v2)
Трек 2 : извлечено точно (доверие 1) [32130F2E] (AR v2)
Трек 3 : извлечено точно (доверие 1) [20D29820] (AR v2)
Трек 4 : извлечено точно (доверие 1) [DB33AB0E] (AR v2)
Трек 5 : извлечено точно (доверие 1) [F1F9D903] (AR v2)
Трек 6 : извлечено точно (доверие 1) [A46003D8] (AR v2)
Трек 7 : извлечено точно (доверие 1) [4F290771] (AR v2)
Трек 8 : извлечено точно (доверие 1) [DC7A4F2A] (AR v2)
Трек 9 : извлечено точно (доверие 1) [EEB38123] (AR v2)
Трек 10 : извлечено точно (доверие 1) [B6A0007C] (AR v2)

Все треки извлечены точно

Конец отчёта

==== Контрольная сумма отчёта 6B86A3D8EAF1B91C515FA4ED16533167C3E6B0AC6447DD9AC901C4E3067643D9 ====

REM GENRE “Rock & Roll”
REM DATE 1968
REM DISCID 91099C0A
REM COMMENT “ExactAudioCopy v1.0b3”
CATALOG 0000000000000
PERFORMER “The Rolling Stones”
TITLE “Beggars Banquet”
FILE “The Rolling Stones – Beggars Banquet.flac” WAVE
TRACK 01 AUDIO
TITLE “Sympathy For The Devil”
PERFORMER “The Rolling Stones”
INDEX 00 00:00:00
INDEX 01 00:00:37
TRACK 02 AUDIO
TITLE “No Expectations”
PERFORMER “The Rolling Stones”
INDEX 00 06:26:48
INDEX 01 06:29:29
TRACK 03 AUDIO
TITLE “Dear Doctor”
PERFORMER “The Rolling Stones”
INDEX 00 10:31:58
INDEX 01 10:34:42
TRACK 04 AUDIO
TITLE “Parachute Woman”
PERFORMER “The Rolling Stones”
INDEX 00 14:02:08
INDEX 01 14:04:59
TRACK 05 AUDIO
TITLE “Jig-Saw Puzzle”
PERFORMER “The Rolling Stones”
INDEX 00 16:28:50
INDEX 01 16:31:42
TRACK 06 AUDIO
TITLE “Street Fighting Man”
PERFORMER “The Rolling Stones”
INDEX 00 22:49:73
INDEX 01 22:53:12
TRACK 07 AUDIO
TITLE “Prodigal Son”
PERFORMER “The Rolling Stones”
INDEX 00 26:11:20
INDEX 01 26:13:47
TRACK 08 AUDIO
TITLE “Stray Cat Blues”
PERFORMER “The Rolling Stones”
INDEX 00 29:07:18
INDEX 01 29:09:64
TRACK 09 AUDIO
TITLE “Factory Girl”
PERFORMER “The Rolling Stones”
INDEX 00 33:49:63
INDEX 01 33:53:32
TRACK 10 AUDIO
TITLE “Salt Of The Earth”
PERFORMER “The Rolling Stones”
INDEX 00 36:04:33
INDEX 01 36:07:07


Leave a Reply

Your email address will not be published. Required fields are marked *

Enter the text from the image below
 

This site uses Akismet to reduce spam. Learn how your comment data is processed.