The Rolling Stones – Another Side Of Steel Wheels (Japanese Edition)




Artist: The Rolling Stones
Year: 1990
Genre: Rock
Notes: Discogs
Add. Notes: Japanese Edition
Cover incl.: Yes
Encoder: FLAC
Bitrate: ~900 kBit/s (44.1 kHz/16 Bit/s)
Log & Cue incl.: Yes
Size: 277,32 MB
Password: “slam” (without ” “)


All Downloads/Hosters are compatible

Download 1
Turbobit.net
NitroFlare.com
KatFile.com
Rapidgator.net
Download 2
Turbobit.net
NitroFlare.com
KatFile.com
Rapidgator.net

Tracklist:

1 - Mixed Emotions (Re-Mix) - 6:13
2 - Rock And A Hard Place (Dance Mix) - 6:55
3 - Rock And A Hard Place (Oh-Oh Hard Dub Mix) - 6:55
4 - Rock And A Hard Place (Michael Brauer Mix) - 7:05
5 - Rock And A Hard Place (Bonus Beats Mix) - 4:08
6 - Fancy Man Blues - 4:56
7 - Cook Cook Blues - 4:12

EAC-Log, CUE-Sheed & NFO:

Click to open spoiler
Exact Audio Copy V1.0 beta 3 from 29. August 2011

EAC extraction logfile from 11. October 2013, 17:19

The Rolling Stones / Another Side Of Steel Wheels [CSCS 5116 ]

Used drive : HL-DT-STDVD+-RW GH50N Adapter: 0 ID: 1

Read mode : Secure
Utilize accurate stream : Yes
Defeat audio cache : Yes
Make use of C2 pointers : No

Read offset correction : 667
Overread into Lead-In and Lead-Out : No
Fill up missing offset samples with silence : Yes
Delete leading and trailing silent blocks : No
Null samples used in CRC calculations : Yes
Used interface : Native Win32 interface for Win NT & 2000

Used output format : User Defined Encoder
Selected bitrate : 768 kBit/s
Quality : High
Add ID3 tag : No
Command line compressor : C:\Program Files (x86)\Exact Audio Copy\FLAC\FLAC.EXE
Additional command line options : -V -8 -T “Date=%year%” -T “Genre=%genre%” %source%

TOC of the extracted CD

Track | Start | Length | Start sector | End sector
———————————————————
1 | 0:00.00 | 6:13.37 | 0 | 28011
2 | 6:13.37 | 6:55.68 | 28012 | 59204
3 | 13:09.30 | 6:55.57 | 59205 | 90386
4 | 20:05.12 | 7:05.63 | 90387 | 122324
5 | 27:11.00 | 4:08.65 | 122325 | 140989
6 | 31:19.65 | 4:56.22 | 140990 | 163211
7 | 36:16.12 | 4:12.70 | 163212 | 182181

Range status and errors

Selected range

Filename C:\222\Singles\1990 – Another Side Of Steel Wheels [CSCS 5116 ]\The Rolling Stones – Another Side Of Steel Wheels [CSCS 5116 ].wav

Peak level 100.0 %
Extraction speed 1.9 X
Range quality 100.0 %
Test CRC B69B285B
Copy CRC B69B285B
Copy OK

No errors occurred

AccurateRip summary

Track 1 accurately ripped (confidence 4) [68157BF1] (AR v2)
Track 2 accurately ripped (confidence 4) [D30C7301] (AR v2)
Track 3 accurately ripped (confidence 4) [0A9D4FD5] (AR v2)
Track 4 accurately ripped (confidence 4) [DF98D703] (AR v2)
Track 5 accurately ripped (confidence 4) [3ABF921A] (AR v2)
Track 6 accurately ripped (confidence 4) [8224E149] (AR v2)
Track 7 accurately ripped (confidence 4) [B2A99518] (AR v2)

All tracks accurately ripped

End of status report

==== Log checksum 0FAA5A6857D4D27401E0748453D18EB7D494213BC47D73F1C74257CCA6FEDED3 ====

REM GENRE Rock
REM DATE 1990
REM DISCID 5D097D07
REM COMMENT “ExactAudioCopy v1.0b3”
PERFORMER “The Rolling Stones”
TITLE “Another Side Of Steel Wheels [CSCS 5116 ]”
FILE “The Rolling Stones – Another Side Of Steel Wheels [CSCS 5116 ].flac” WAVE
TRACK 01 AUDIO
TITLE “Mixed Emotions [Remix]”
PERFORMER “The Rolling Stones”
INDEX 01 00:00:00
TRACK 02 AUDIO
TITLE “Rock And A Hard Place [Dance Mix]”
PERFORMER “The Rolling Stones”
INDEX 01 06:13:37
TRACK 03 AUDIO
TITLE “Rock And A Hard Place [Oh-Oh Hard Dub Mix]”
PERFORMER “The Rolling Stones”
INDEX 01 13:09:30
TRACK 04 AUDIO
TITLE “Rock And A Hard Place [Michael Brauer Mix]”
PERFORMER “The Rolling Stones”
INDEX 01 20:05:12
TRACK 05 AUDIO
TITLE “Rock And A Hard Place [Bonus Beats Mix]”
PERFORMER “The Rolling Stones”
INDEX 01 27:11:00
TRACK 06 AUDIO
TITLE “Fancy Man Blues”
PERFORMER “The Rolling Stones”
INDEX 01 31:19:65
TRACK 07 AUDIO
TITLE “Cook Cook Blues”
PERFORMER “The Rolling Stones”
INDEX 01 36:16:12


Leave a Reply

Your email address will not be published. Required fields are marked *

Enter the text from the image below
 

This site uses Akismet to reduce spam. Learn how your comment data is processed.