The Rolling Stones – Aftermath UK (Remastered)




Artist: The Rolling Stones
Year: 1966/2002
Genre: Rock
Notes: Discogs
Add. Notes: Remastered
Cover incl.: Yes
Encoder: FLAC
Bitrate: ~800 kBit/s (44.1 kHz/16 Bit/s)
Log & Cue incl.: Yes
Size: 347,64 MB
Password: “slam” (without ” “)


All Downloads/Hosters are compatible

Download 1
Turbobit.net
KatFile.com
Rapidgator.net
NitroFlare.com
Download 2
Turbobit.net
KatFile.com
Rapidgator.net
NitroFlare.com

Tracklist:

1 - Mother's Little Helper - 2:45
2 - Stupid Girl - 2:56
3 - Lady Jane - 3:08
4 - Under My Thumb - 3:41
5 - Doncha Bother Me - 2:41
6 - Going Home - 11:14
7 - Flight 505 - 3:27
8 - High And Dry - 3:08
9 - Out Of Time - 5:37
10 - It's Not Easy - 2:56
11 - I Am Waiting - 3:11
12 - Take It Or Leave It - 2:47
13 - Think - 3:09
14 - What To Do - 2:32

EAC-Log, CUE-Sheed & NFO:

Click to open spoiler
Exact Audio Copy V1.0 beta 3 from 29. August 2011

EAC extraction logfile from 17. March 2013, 0:05

The Rolling Stones / Aftermath (UK) [ABKCO 8822952]

Used drive : PLEXTOR DVDR PX-891SA Adapter: 1 ID: 0

Read mode : Secure
Utilize accurate stream : Yes
Defeat audio cache : Yes
Make use of C2 pointers : No

Read offset correction : 6
Overread into Lead-In and Lead-Out : No
Fill up missing offset samples with silence : Yes
Delete leading and trailing silent blocks : No
Null samples used in CRC calculations : Yes
Used interface : Native Win32 interface for Win NT & 2000

Used output format : User Defined Encoder
Selected bitrate : 1024 kBit/s
Quality : High
Add ID3 tag : No
Command line compressor : C:\Program Files\Exact Audio Copy\Flac\flac.exe
Additional command line options : -V -8 -T “Genre=%genre%” -T “Artist=%artist%” -T “Title=%title%” -T “Album=%albumtitle%” -T “Date=%year%” -T “Tracknumber=%tracknr%” -T “Comment=%comment%” %source%

TOC of the extracted CD

Track | Start | Length | Start sector | End sector
———————————————————
1 | 0:00.00 | 2:45.52 | 0 | 12426
2 | 2:45.52 | 2:56.35 | 12427 | 25661
3 | 5:42.12 | 3:08.65 | 25662 | 39826
4 | 8:51.02 | 3:41.73 | 39827 | 56474
5 | 12:33.00 | 2:41.67 | 56475 | 68616
6 | 15:14.67 | 11:14.18 | 68617 | 119184
7 | 26:29.10 | 3:27.55 | 119185 | 134764
8 | 29:56.65 | 3:08.35 | 134765 | 148899
9 | 33:05.25 | 5:37.40 | 148900 | 174214
10 | 38:42.65 | 2:56.25 | 174215 | 187439
11 | 41:39.15 | 3:11.37 | 187440 | 201801
12 | 44:50.52 | 2:47.33 | 201802 | 214359
13 | 47:38.10 | 3:09.52 | 214360 | 228586
14 | 50:47.62 | 2:32.43 | 228587 | 240029

Range status and errors

Selected range

Filename H:\dafnaplus\1966 Aftermath UK [ABKCO 8822952]\The Rolling Stones – Aftermath (UK) [ABKCO 8822952].wav

Peak level 99.8 %
Extraction speed 8.0 X
Range quality 100.0 %
Test CRC 94E60A06
Copy CRC 94E60A06
Copy OK

No errors occurred

AccurateRip summary

Track 1 accurately ripped (confidence 3) [D73AEE9B] (AR v2)
Track 2 accurately ripped (confidence 3) [5C64E712] (AR v2)
Track 3 accurately ripped (confidence 3) [BEED97E9] (AR v2)
Track 4 accurately ripped (confidence 3) [37227FFB] (AR v2)
Track 5 accurately ripped (confidence 3) [E01C8805] (AR v2)
Track 6 accurately ripped (confidence 3) [D60CA020] (AR v2)
Track 7 accurately ripped (confidence 3) [D0F7DD4C] (AR v2)
Track 8 accurately ripped (confidence 3) [DA3EA436] (AR v2)
Track 9 accurately ripped (confidence 3) [08793500] (AR v2)
Track 10 accurately ripped (confidence 3) [3A65DB32] (AR v2)
Track 11 accurately ripped (confidence 3) [98D0BB36] (AR v2)
Track 12 accurately ripped (confidence 3) [F69509E4] (AR v2)
Track 13 accurately ripped (confidence 3) [CAC19E96] (AR v2)
Track 14 accurately ripped (confidence 3) [802E3FB5] (AR v2)

All tracks accurately ripped

End of status report

==== Log checksum A82F71F106E094B64DBF1DDB9DEDEF95D20A0D5A86259B7B11501BB4C000309F ====

REM GENRE Rock
REM DATE 2002
REM DISCID CF0C800E
REM COMMENT “ExactAudioCopy v1.0b3”
PERFORMER “The Rolling Stones”
TITLE “Aftermath (UK) [ABKCO 8822952]”
FILE “The Rolling Stones – Aftermath (UK) [ABKCO 8822952].flac” WAVE
TRACK 01 AUDIO
TITLE “Mother’s Little Helper”
PERFORMER “The Rolling Stones”
ISRC USA176610270
INDEX 01 00:00:00
TRACK 02 AUDIO
TITLE “Stupid Girl”
PERFORMER “The Rolling Stones”
ISRC USA176610030
INDEX 00 02:44:72
INDEX 01 02:45:52
TRACK 03 AUDIO
TITLE “Lady Jane”
PERFORMER “The Rolling Stones”
ISRC USA176610040
INDEX 00 05:40:32
INDEX 01 05:42:12
TRACK 04 AUDIO
TITLE “Under My Thumb”
PERFORMER “The Rolling Stones”
ISRC USA176610050
INDEX 00 08:50:15
INDEX 01 08:51:02
TRACK 05 AUDIO
TITLE “Doncha Bother Me”
PERFORMER “The Rolling Stones”
ISRC USA176610060
INDEX 00 12:32:42
INDEX 01 12:33:00
TRACK 06 AUDIO
TITLE “Goin’ Home”
PERFORMER “The Rolling Stones”
ISRC USA176610120
INDEX 00 15:14:12
INDEX 01 15:14:67
TRACK 07 AUDIO
TITLE “Flight 505”
PERFORMER “The Rolling Stones”
ISRC USA176610080
INDEX 00 26:28:12
INDEX 01 26:29:10
TRACK 08 AUDIO
TITLE “High And Dry”
PERFORMER “The Rolling Stones”
ISRC USA176610090
INDEX 00 29:56:17
INDEX 01 29:56:65
TRACK 09 AUDIO
TITLE “Out Of Time”
PERFORMER “The Rolling Stones”
ISRC USA176610330
INDEX 00 33:04:65
INDEX 01 33:05:25
TRACK 10 AUDIO
TITLE “It’s Not Easy”
PERFORMER “The Rolling Stones”
ISRC USA176610100
INDEX 00 38:42:17
INDEX 01 38:42:65
TRACK 11 AUDIO
TITLE “I Am Waiting”
PERFORMER “The Rolling Stones”
ISRC USA176610110
INDEX 00 41:39:10
INDEX 01 41:39:15
TRACK 12 AUDIO
TITLE “Take It Or Leave It”
PERFORMER “The Rolling Stones”
ISRC USA176610280
INDEX 00 44:50:07
INDEX 01 44:50:52
TRACK 13 AUDIO
TITLE “Think”
PERFORMER “The Rolling Stones”
ISRC USA176610070
INDEX 00 47:38:02
INDEX 01 47:38:10
TRACK 14 AUDIO
TITLE “What To Do”
PERFORMER “The Rolling Stones”
ISRC USA176610300
INDEX 01 50:47:62


Leave a Reply

Your email address will not be published. Required fields are marked *

This site uses Akismet to reduce spam. Learn how your comment data is processed.