The Rolling Stones – Aftermath UK (Japanese Edition)




Artist: The Rolling Stones
Year: 1966/1989
Genre: Rock
Notes: Discogs
Add. Notes: Japanese Edition
Cover incl.: Yes
Encoder: FLAC
Bitrate: ~700 kBit/s (44.1 kHz/16 Bit/s)
Log & Cue incl.: Yes
Size: 379,7 MB
Password: “slam” (without ” “)


All Downloads/Hosters are compatible

Download 1
KatFile.com
Turbobit.net
FileFactory.com
Rapidgator.net
Download 2
KatFile.com
Turbobit.net
FileFactory.com
Rapidgator.net

Tracklist:

1 Mother's Little Helper 2:48
2 Stupid Girl 2:58
3 Lady Jane 3:11
4 Under My Thumb 3:43
5 Doncha Bother Me 2:43
6 Goin' Home 11:16
7 Flight 505 3:29
8 High And Dry 3:10
9 Out Of Time 5:39
10 It's Not Easy 2:57
11 I Am Waiting 3:12
12 Take It Or Leave It 2:48
13 Think 3:11
14 What To Do 2:31

EAC-Log, CUE-Sheed & NFO:

Click to open spoiler
Exact Audio Copy V1.0 beta 3 from 29. August 2011

EAC extraction logfile from 6. April 2013, 22:13

The Rolling Stones / Aftermath UK (P25L-25037)

Used drive : PLEXTOR DVDR PX-891SA Adapter: 1 ID: 0

Read mode : Secure
Utilize accurate stream : Yes
Defeat audio cache : Yes
Make use of C2 pointers : No

Read offset correction : 6
Overread into Lead-In and Lead-Out : No
Fill up missing offset samples with silence : Yes
Delete leading and trailing silent blocks : No
Null samples used in CRC calculations : Yes
Used interface : Native Win32 interface for Win NT & 2000

Used output format : User Defined Encoder
Selected bitrate : 1024 kBit/s
Quality : High
Add ID3 tag : No
Command line compressor : C:\Program Files\Exact Audio Copy\Flac\flac.exe
Additional command line options : -V -8 -T “Genre=%genre%” -T “Artist=%artist%” -T “Title=%title%” -T “Album=%albumtitle%” -T “Date=%year%” -T “Tracknumber=%tracknr%” -T “Comment=%comment%” %source%

TOC of the extracted CD

Track | Start | Length | Start sector | End sector
———————————————————
1 | 0:00.37 | 2:48.38 | 37 | 12674
2 | 2:49.00 | 2:58.00 | 12675 | 26024
3 | 5:47.00 | 3:11.00 | 26025 | 40349
4 | 8:58.00 | 3:43.00 | 40350 | 57074
5 | 12:41.00 | 2:43.20 | 57075 | 69319
6 | 15:24.20 | 11:16.17 | 69320 | 120036
7 | 26:40.37 | 3:29.63 | 120037 | 135774
8 | 30:10.25 | 3:10.50 | 135775 | 150074
9 | 33:21.00 | 5:39.00 | 150075 | 175499
10 | 39:00.00 | 2:57.00 | 175500 | 188774
11 | 41:57.00 | 3:12.25 | 188775 | 203199
12 | 45:09.25 | 2:48.50 | 203200 | 215849
13 | 47:58.00 | 3:11.00 | 215850 | 230174
14 | 51:09.00 | 2:31.72 | 230175 | 241571

Range status and errors

Selected range

Filename H:\dafnaplus\The Rolling Stones – Aftermath UK [Polydor P25L-25037]\The Rolling Stones – Aftermath UK (P25L-25037).wav

Peak level 91.3 %
Extraction speed 8.5 X
Range quality 100.0 %
Test CRC 660F61A1
Copy CRC 660F61A1
Copy OK

No errors occurred

AccurateRip summary

Track 1 not present in database
Track 2 not present in database
Track 3 not present in database
Track 4 not present in database
Track 5 not present in database
Track 6 not present in database
Track 7 not present in database
Track 8 not present in database
Track 9 not present in database
Track 10 not present in database
Track 11 not present in database
Track 12 not present in database
Track 13 not present in database
Track 14 not present in database

None of the tracks are present in the AccurateRip database

End of status report

==== Log checksum 7F7B7E0AC02C93CBFD62C482775A05D229920F5A1969A8D928FD92626D0577EB ====

REM GENRE Rock
REM DATE 1989
REM DISCID A30C940E
REM COMMENT “ExactAudioCopy v1.0b3”
CATALOG 0000000000000
PERFORMER “The Rolling Stones”
TITLE “Aftermath UK (P25L-25037)”
FILE “The Rolling Stones – Aftermath UK (P25L-25037).flac” WAVE
TRACK 01 AUDIO
TITLE “Mother’s Little Helper”
PERFORMER “The Rolling Stones”
INDEX 00 00:00:00
INDEX 01 00:00:37
TRACK 02 AUDIO
TITLE “Stupid Girl”
PERFORMER “The Rolling Stones”
INDEX 00 02:46:25
INDEX 01 02:49:00
TRACK 03 AUDIO
TITLE “Lady Jane”
PERFORMER “The Rolling Stones”
INDEX 00 05:44:40
INDEX 01 05:47:00
TRACK 04 AUDIO
TITLE “Under My Thumb”
PERFORMER “The Rolling Stones”
INDEX 00 08:55:39
INDEX 01 08:58:00
TRACK 05 AUDIO
TITLE “Doncha Bother Me”
PERFORMER “The Rolling Stones”
INDEX 00 12:38:39
INDEX 01 12:41:00
TRACK 06 AUDIO
TITLE “Goin’ Home”
PERFORMER “The Rolling Stones”
INDEX 00 15:21:58
INDEX 01 15:24:20
TRACK 07 AUDIO
TITLE “Flight 505”
PERFORMER “The Rolling Stones”
INDEX 00 26:38:04
INDEX 01 26:40:37
TRACK 08 AUDIO
TITLE “High And Dry”
PERFORMER “The Rolling Stones”
INDEX 00 30:07:64
INDEX 01 30:10:25
TRACK 09 AUDIO
TITLE “Out Of Time”
PERFORMER “The Rolling Stones”
INDEX 00 33:18:28
INDEX 01 33:21:00
TRACK 10 AUDIO
TITLE “It’s Not Easy”
PERFORMER “The Rolling Stones”
INDEX 00 38:57:55
INDEX 01 39:00:00
TRACK 11 AUDIO
TITLE “I Am Waiting”
PERFORMER “The Rolling Stones”
INDEX 00 41:54:47
INDEX 01 41:57:00
TRACK 12 AUDIO
TITLE “Take It Or Leave It”
PERFORMER “The Rolling Stones”
INDEX 00 45:06:64
INDEX 01 45:09:25
TRACK 13 AUDIO
TITLE “Think”
PERFORMER “The Rolling Stones”
INDEX 00 47:55:38
INDEX 01 47:58:00
TRACK 14 AUDIO
TITLE “What To Do”
PERFORMER “The Rolling Stones”
INDEX 00 51:06:53
INDEX 01 51:09:00


0

Publication author

offline 12 hours

Chaos

3
Comments: 3Publics: 3189Registration: 02-02-2019
Spread the Download

Leave a Reply

Your email address will not be published. Required fields are marked *

Enter the text from the image below
 

This site uses Akismet to reduce spam. Learn how your comment data is processed.