The Rolling Stones – Aftermath (Remastered Japanese Edition)




Artist: The Rolling Stones
Year: 1966/1995
Genre: Rock
Notes: Discogs
Add. Notes: Remastered Japanese Edition
Cover incl.: Yes
Encoder: FLAC
Bitrate: ~700 kBit/s (44.1 kHz/16 Bit/s)
Log & Cue incl.: Yes
Size: 271,8 MB
Password: “slam” (without ” “)


All Downloads/Hosters are compatible

Download 1
KatFile.com
Turbobit.net
Rapidgator.net
Download 2
KatFile.com
Turbobit.net
Rapidgator.net

Tracklist:

1. Paint It Black  
2. Stupid Girl  
3. Lady Jane  
4. Under My Thumb  
5. Doncha Bother Me  
6. Think  
7. Flight 505  
8. High And Dry  
9. It's Not Easy  
10. I Am Waiting  
11. Going Home

EAC-Log, CUE-Sheed & NFO:

Click to open spoiler
Exact Audio Copy V1.0 beta 1 from 15. November 2010

EAC extraction logfile from 1. April 2015, 15:09

Rolling Stones / Aftermath

Used drive : MATSHITADVD-RAM UJ8A0AS Adapter: 0 ID: 1

Read mode : Secure
Utilize accurate stream : Yes
Defeat audio cache : Yes
Make use of C2 pointers : No

Read offset correction : 102
Overread into Lead-In and Lead-Out : No
Fill up missing offset samples with silence : Yes
Delete leading and trailing silent blocks : No
Null samples used in CRC calculations : Yes
Used interface : Native Win32 interface for Win NT & 2000

Used output format : Internal WAV Routines
Sample format : 44.100 Hz; 16 Bit; Stereo

TOC of the extracted CD

Track | Start | Length | Start sector | End sector
———————————————————
1 | 0:00.32 | 3:50.00 | 32 | 17281
2 | 3:50.32 | 2:58.03 | 17282 | 30634
3 | 6:48.35 | 3:11.00 | 30635 | 44959
4 | 9:59.35 | 3:43.40 | 44960 | 61724
5 | 13:43.00 | 2:43.30 | 61725 | 73979
6 | 16:26.30 | 3:11.55 | 73980 | 88359
7 | 19:38.10 | 3:29.65 | 88360 | 104099
8 | 23:08.00 | 3:10.52 | 104100 | 118401
9 | 26:18.52 | 2:57.65 | 118402 | 131741
10 | 29:16.42 | 3:13.10 | 131742 | 146226
11 | 32:29.52 | 11:14.63 | 146227 | 196839

Range status and errors

Selected range

Filename C:\Users\Alex\Music\Rolling Stones – Aftermath.wav

Peak level 95.5 %
Extraction speed 0.3 X
Range quality 100.0 %
Test CRC 305EC932
Copy CRC 305EC932
Copy OK

No errors occurred

AccurateRip summary

Track 1 accurately ripped (confidence 1) [FEED1118]
Track 2 accurately ripped (confidence 1) [19CB88D9]
Track 3 accurately ripped (confidence 1) [038367DC]
Track 4 accurately ripped (confidence 1) [9D75794C]
Track 5 accurately ripped (confidence 1) [86007FA9]
Track 6 accurately ripped (confidence 1) [C9AC9532]
Track 7 accurately ripped (confidence 1) [53A9B4ED]
Track 8 accurately ripped (confidence 1) [F42CF896]
Track 9 accurately ripped (confidence 1) [02D7FC6B]
Track 10 accurately ripped (confidence 1) [31BE593E]
Track 11 accurately ripped (confidence 1) [8D2251BC]

All tracks accurately ripped

End of status report

==== Log checksum 42D48069F3F99AD449B979CABC7169C5C66DD7592546B70CEDFE4FCAE16EE9ED ====

REM GENRE Rock
REM DATE 1966
REM DISCID 870A400B
REM COMMENT “ExactAudioCopy v1.0b1”
PERFORMER “Rolling Stones”
TITLE “Aftermath”
FILE “Rolling Stones – Aftermath.flac” WAVE
TRACK 01 AUDIO
TITLE “Paint It Black”
PERFORMER “Rolling Stones”
INDEX 00 00:00:00
INDEX 01 00:00:32
TRACK 02 AUDIO
TITLE “Stupid Girl”
PERFORMER “Rolling Stones”
INDEX 00 03:48:02
INDEX 01 03:50:32
TRACK 03 AUDIO
TITLE “Lady Jane”
PERFORMER “Rolling Stones”
INDEX 00 06:46:02
INDEX 01 06:48:35
TRACK 04 AUDIO
TITLE “Under My Thumb”
PERFORMER “Rolling Stones”
INDEX 00 09:56:65
INDEX 01 09:59:35
TRACK 05 AUDIO
TITLE “Doncha Bother Me”
PERFORMER “Rolling Stones”
INDEX 00 13:41:30
INDEX 01 13:43:00
TRACK 06 AUDIO
TITLE “Think”
PERFORMER “Rolling Stones”
INDEX 00 16:23:72
INDEX 01 16:26:30
TRACK 07 AUDIO
TITLE “Flight 505”
PERFORMER “Rolling Stones”
INDEX 00 19:35:37
INDEX 01 19:38:10
TRACK 08 AUDIO
TITLE “High And Dry”
PERFORMER “Rolling Stones”
INDEX 00 23:05:35
INDEX 01 23:08:00
TRACK 09 AUDIO
TITLE “It’s Not Easy”
PERFORMER “Rolling Stones”
INDEX 00 26:16:42
INDEX 01 26:18:52
TRACK 10 AUDIO
TITLE “I Am Waiting”
PERFORMER “Rolling Stones”
INDEX 00 29:14:07
INDEX 01 29:16:42
TRACK 11 AUDIO
TITLE “Going Home”
PERFORMER “Rolling Stones”
INDEX 00 32:27:17
INDEX 01 32:29:52


Leave a Reply

Your email address will not be published. Required fields are marked *

This site uses Akismet to reduce spam. Learn how your comment data is processed.