The Rolling Stones – A Bigger Bang




[Total: 0    Average: 0/5]

Artist: The Rolling Stones
Year: 2005
Genre: Rock
Notes: Discogs
Add. Notes:
Cover incl.: Yes
Encoder: FLAC
Bitrate: ~1000 kBit/s (44.1 kHz/16 Bit/s)
Log & Cue incl.: Yes
Size: 506,37 MB
Password: “slam” (without ” “)


All Downloads/Hosters are compatible

Download 1
Share-online.biz
KatFile.com
Rapidgator.net
Download 2
Share-online.biz
KatFile.com
Rapidgator.net

Tracklist:

1. Rough Justice (3:11)
2. Let Me Down Slow (4:16)
3. It Wont Take Long (3:55)
4. Rain Fall Down (4:54)
5. Streets Of Love (5:10)
6. Back Of My Hand (3:33)
7. She Saw Me Coming (3:12)
8. Biggest Mistake (4:07)
9. This Place Is Empty (3:16)
10. Oh No Not You Again (3:47)
11. Dangerous Beauty (3:48)
12. Laugh I Nearly Died (4:54)
13. Sweet Neocon (4:34)
14. Look What The Cat Dragged In (3:57)
15. Driving Too Fast (3:57)
16. Infamy (3:48)

EAC-Log, CUE-Sheed & NFO:

Click to open spoiler
Exact Audio Copy V1.0 beta 3 from 29. August 2011

EAC extraction logfile from 16. May 2013, 22:49

The Rolling Stones / A Bigger Bang (CDV3012)

Used drive : PLEXTOR DVDR PX-891SA Adapter: 1 ID: 0

Read mode : Secure
Utilize accurate stream : Yes
Defeat audio cache : Yes
Make use of C2 pointers : No

Read offset correction : 6
Overread into Lead-In and Lead-Out : No
Fill up missing offset samples with silence : Yes
Delete leading and trailing silent blocks : No
Null samples used in CRC calculations : Yes
Used interface : Native Win32 interface for Win NT & 2000

Used output format : User Defined Encoder
Selected bitrate : 1024 kBit/s
Quality : High
Add ID3 tag : No
Command line compressor : C:\Program Files\Exact Audio Copy\Flac\flac.exe
Additional command line options : -V -8 -T “Genre=%genre%” -T “Artist=%artist%” -T “Title=%title%” -T “Album=%albumtitle%” -T “Date=%year%” -T “Tracknumber=%tracknr%” -T “Comment=%comment%” %source%

TOC of the extracted CD

Track | Start | Length | Start sector | End sector
———————————————————
1 | 0:00.00 | 3:11.70 | 0 | 14394
2 | 3:11.70 | 4:16.25 | 14395 | 33619
3 | 7:28.20 | 3:54.72 | 33620 | 51241
4 | 11:23.17 | 4:53.60 | 51242 | 73276
5 | 16:17.02 | 5:10.15 | 73277 | 96541
6 | 21:27.17 | 3:32.70 | 96542 | 112511
7 | 25:00.12 | 3:12.33 | 112512 | 126944
8 | 28:12.45 | 4:06.30 | 126945 | 145424
9 | 32:19.00 | 3:16.42 | 145425 | 160166
10 | 35:35.42 | 3:46.60 | 160167 | 177176
11 | 39:22.27 | 3:48.10 | 177177 | 194286
12 | 43:10.37 | 4:54.03 | 194287 | 216339
13 | 48:04.40 | 4:33.72 | 216340 | 236886
14 | 52:38.37 | 3:57.20 | 236887 | 254681
15 | 56:35.57 | 3:56.70 | 254682 | 272451
16 | 60:32.52 | 3:47.45 | 272452 | 289521

Range status and errors

Selected range

Filename H:\dafnaplus\The Rolling Stones – A Bigger Bang\The Rolling Stones – A Bigger Bang (CDV3012).wav

Peak level 100.0 %
Extraction speed 8.6 X
Range quality 100.0 %
Test CRC B2CB2EF2
Copy CRC B2CB2EF2
Copy OK

No errors occurred

AccurateRip summary

Track 1 accurately ripped (confidence 20) [640A678E] (AR v2)
Track 2 accurately ripped (confidence 21) [EE057F3E] (AR v2)
Track 3 accurately ripped (confidence 21) [8E4C4F45] (AR v2)
Track 4 accurately ripped (confidence 21) [4088D658] (AR v2)
Track 5 accurately ripped (confidence 21) [3DF4A907] (AR v2)
Track 6 accurately ripped (confidence 21) [E37F944C] (AR v2)
Track 7 accurately ripped (confidence 20) [10F7FDCD] (AR v2)
Track 8 accurately ripped (confidence 19) [85DE606E] (AR v2)
Track 9 accurately ripped (confidence 21) [2AA5E8BA] (AR v2)
Track 10 accurately ripped (confidence 21) [D963A3A0] (AR v2)
Track 11 accurately ripped (confidence 21) [45D8FE73] (AR v2)
Track 12 accurately ripped (confidence 21) [998BFC65] (AR v2)
Track 13 accurately ripped (confidence 20) [9F31AEE2] (AR v2)
Track 14 accurately ripped (confidence 20) [E37472A4] (AR v2)
Track 15 accurately ripped (confidence 21) [9952BED9] (AR v2)
Track 16 accurately ripped (confidence 20) [0E7058CF] (AR v2)

All tracks accurately ripped

End of status report

==== Log checksum DDAC6BF4C729A16936B65A56C334907DB8DAEFE964C502BFE094AD60050D7F4F ====

REM GENRE Rock
REM DATE 2005
REM DISCID F90F1410
REM COMMENT “ExactAudioCopy v1.0b3”
CATALOG 0094633006720
PERFORMER “The Rolling Stones”
TITLE “A Bigger Bang (CDV3012)”
FILE “The Rolling Stones – A Bigger Bang (CDV3012).flac” WAVE
TRACK 01 AUDIO
TITLE “Rough Justice”
PERFORMER “The Rolling Stones”
ISRC GBCJN0500045
INDEX 01 00:00:00
TRACK 02 AUDIO
TITLE “Let Me Down Slow”
PERFORMER “The Rolling Stones”
ISRC GBCJN0500049
INDEX 01 03:11:70
TRACK 03 AUDIO
TITLE “It Wont Take Long”
PERFORMER “The Rolling Stones”
ISRC GBCJN0500050
INDEX 00 07:27:05
INDEX 01 07:28:20
TRACK 04 AUDIO
TITLE “Rain Fall Down”
PERFORMER “The Rolling Stones”
ISRC GBCJN0500051
INDEX 01 11:23:17
TRACK 05 AUDIO
TITLE “Streets Of Love”
PERFORMER “The Rolling Stones”
ISRC GBCJN0500043
INDEX 01 16:17:02
TRACK 06 AUDIO
TITLE “Back Of My Hand”
PERFORMER “The Rolling Stones”
ISRC GBCJN0500046
INDEX 01 21:27:17
TRACK 07 AUDIO
TITLE “She Saw Me Coming”
PERFORMER “The Rolling Stones”
ISRC GBCJN0500052
INDEX 01 25:00:12
TRACK 08 AUDIO
TITLE “Biggest Mistake”
PERFORMER “The Rolling Stones”
ISRC GBCJN0500053
INDEX 01 28:12:45
TRACK 09 AUDIO
TITLE “This Place Is Empty”
PERFORMER “The Rolling Stones”
ISRC GBCJN0500054
INDEX 01 32:19:00
TRACK 10 AUDIO
TITLE “Oh No Not You Again”
PERFORMER “The Rolling Stones”
ISRC GBCJN0500055
INDEX 01 35:35:42
TRACK 11 AUDIO
TITLE “Dangerous Beauty”
PERFORMER “The Rolling Stones”
ISRC GBCJN0500056
INDEX 01 39:22:27
TRACK 12 AUDIO
TITLE “Laugh I Nearly Died”
PERFORMER “The Rolling Stones”
ISRC GBCJN0500057
INDEX 01 43:10:37
TRACK 13 AUDIO
TITLE “Sweet Neocon”
PERFORMER “The Rolling Stones”
ISRC GBCJN0500058
INDEX 01 48:04:40
TRACK 14 AUDIO
TITLE “Look What The Cat Dragged In”
PERFORMER “The Rolling Stones”
ISRC GBCJN0500059
INDEX 01 52:38:37
TRACK 15 AUDIO
TITLE “Driving Too Fast”
PERFORMER “The Rolling Stones”
ISRC GBCJN0500061
INDEX 01 56:35:57
TRACK 16 AUDIO
TITLE “Infamy”
PERFORMER “The Rolling Stones”
ISRC GBCJN0500062
INDEX 01 60:32:52


Spread the Download

Leave a Reply

Your email address will not be published. Required fields are marked *

Enter the text from the image below
 

This site uses Akismet to reduce spam. Learn how your comment data is processed.