The Rolling Stones – ‘A Bigger Bang’ European Tour 2006 Sampler (Limited Edition)




Artist: The Rolling Stones
Year: 2006
Genre: Rock
Notes: Discogs
Add. Notes: Limited Edition
Cover incl.: Yes
Encoder: FLAC
Bitrate: ~900 kBit/s (44.1 kHz/16 Bit/s)
Log & Cue incl.: Yes
Size: 240,27 MB
Password: “slam” (without ” “)


All Downloads/Hosters are compatible

Download 1
Turbobit.net
NitroFlare.com
KatFile.com
Rapidgator.net
Download 2
Turbobit.net
NitroFlare.com
KatFile.com
Rapidgator.net

Tracklist:

1. Rocks Off (4:32)
2. Silver Train (4:27)
3. Let Me Down Slow (4:15)
4. Fancy Man Blues (4:28)
5. Waiting On A Friend (4:34)
6. One Hit (To The Body) (4:44)
7. Saint Of Me (Live) (5:22)
8. Respectable (Live) (3:25)

EAC-Log, CUE-Sheed & NFO:

Click to open spoiler
Exact Audio Copy V1.0 beta 3 from 29. August 2011

EAC extraction logfile from 29. June 2013, 9:09

The Rolling Stones / A Bigger Bang European Tour 2006

Used drive : SONY DVD+-RW DW-D56A Adapter: 1 ID: 0

Read mode : Secure
Utilize accurate stream : Yes
Defeat audio cache : Yes
Make use of C2 pointers : No

Read offset correction : 12
Overread into Lead-In and Lead-Out : No
Fill up missing offset samples with silence : Yes
Delete leading and trailing silent blocks : No
Null samples used in CRC calculations : Yes
Used interface : Native Win32 interface for Win NT & 2000

Used output format : User Defined Encoder
Selected bitrate : 768 kBit/s
Quality : High
Add ID3 tag : No
Command line compressor : C:\Program Files\Exact Audio Copy\FLAC\FLAC.EXE
Additional command line options : -V -8 -T “Date=%year%” -T “Genre=%genre%” %source%

TOC of the extracted CD

Track | Start | Length | Start sector | End sector
———————————————————
1 | 0:00.00 | 4:32.74 | 0 | 20473
2 | 4:32.74 | 4:27.69 | 20474 | 40567
3 | 9:00.68 | 4:15.63 | 40568 | 59755
4 | 13:16.56 | 4:49.01 | 59756 | 81431
5 | 18:05.57 | 4:35.05 | 81432 | 102061
6 | 22:40.62 | 4:44.04 | 102062 | 123365
7 | 27:24.66 | 5:22.38 | 123366 | 147553
8 | 32:47.29 | 3:25.65 | 147554 | 162993

Range status and errors

Selected range

Filename E:\RUTRA\2006 – ABB-AMEX\The Rolling Stones – A Bigger Bang European Tour 2006.wav

Peak level 98.6 %
Extraction speed 3.9 X
Range quality 99.9 %
Test CRC 1094388A
Copy CRC 1094388A
Copy OK

No errors occurred

AccurateRip summary

Track 1 not present in database
Track 2 accurately ripped (confidence 2) [C992DA9E] (AR v1)
Track 3 accurately ripped (confidence 2) [C462FB74] (AR v1)
Track 4 accurately ripped (confidence 2) [AE97A988] (AR v1)
Track 5 accurately ripped (confidence 2) [37D9553F] (AR v1)
Track 6 accurately ripped (confidence 2) [CDEC04A8] (AR v1)
Track 7 accurately ripped (confidence 2) [8D217214] (AR v1)
Track 8 accurately ripped (confidence 2) [595C51E7] (AR v1)

7 track(s) accurately ripped
1 track(s) not present in the AccurateRip database

Some tracks could not be verified as accurate

End of status report

==== Log checksum DB2D8D91E543B11AF573412409A6CD21840EF5DD0DE720D5F6301DA89B36B97F ====

REM GENRE Rock
REM DATE 2006
REM DISCID 78087D08
REM COMMENT “ExactAudioCopy v1.0b3”
PERFORMER “The Rolling Stones”
TITLE “A Bigger Bang European Tour 2006”
FILE “The Rolling Stones – A Bigger Bang European Tour 2006.flac” WAVE
TRACK 01 AUDIO
TITLE “Rocks Off”
PERFORMER “The Rolling Stones”
INDEX 01 00:00:00
TRACK 02 AUDIO
TITLE “Silver Train”
PERFORMER “The Rolling Stones”
INDEX 00 04:32:70
INDEX 01 04:32:74
TRACK 03 AUDIO
TITLE “Let Me Down Slow”
PERFORMER “The Rolling Stones”
INDEX 00 09:00:26
INDEX 01 09:00:68
TRACK 04 AUDIO
TITLE “Fancy Man Blues”
PERFORMER “The Rolling Stones”
INDEX 00 13:15:69
INDEX 01 13:16:56
TRACK 05 AUDIO
TITLE “Waiting On A Friend”
PERFORMER “The Rolling Stones”
INDEX 00 18:05:14
INDEX 01 18:05:57
TRACK 06 AUDIO
TITLE “One Hit (To The Body)”
PERFORMER “The Rolling Stones”
INDEX 00 22:39:74
INDEX 01 22:40:62
TRACK 07 AUDIO
TITLE “Saint Of Me (Live)”
PERFORMER “The Rolling Stones”
INDEX 01 27:24:66
TRACK 08 AUDIO
TITLE “Respectable (Live)”
PERFORMER “The Rolling Stones”
INDEX 00 32:47:17
INDEX 01 32:47:29


Leave a Reply

Your email address will not be published. Required fields are marked *

This site uses Akismet to reduce spam. Learn how your comment data is processed.